File Size1.308 GB (1,404,055,310 bytes)
DownloadClickNUpload | GoFile | MdiaLoad
DailyUploads: Part1, Part2
DownloadGG: Part1, Part2
KrakenFiles: Part1, Part2
MultiUp: Part1
  • BdUpload
  • DownAce
  • Fichier
  • FileCloud
  • Filerio
  • FilesCdn
  • IndiShare
  • Kbagi
  • Turbobit
  • UpToBox
  • Uppit
, Part2
  • BdUpload
  • DownAce
  • Fichier
  • FileCloud
  • Filerio
  • FilesCdn
  • IndiShare
  • Kbagi
  • Turbobit
  • UpToBox
  • Uppit
, Part3
  • BdUpload
  • DownAce
  • Fichier
  • FileCloud
  • Filerio
  • FilesCdn
  • IndiShare
  • Kbagi
  • Turbobit
  • UpToBox
  • Uppit

Uppit: Part1, Part2
HashesCRC32: C7689D5B, MD5: EB1782838601351FA0879CBD0131B657, SHA1: 160F9182027C14598D3C5899821D5F7D0EF2F193, SHA256: 68C058420164D9ED2E369C53033124E3505628F1B8A085CB115CBE7D253B5F5C, ED2K: 7F1FD60E37F80035C459527280023CF4
Screenshots
screenshotscreenshotscreenshotscreenshotscreenshot
SubtitlesAll Attachments | eng [ASS], SDH [jpn, SRT]
Additional Info
General
Unique ID                                : 326087785904463659182613028043622667497 (0xF552391F8592CB0DA847A4C4BF7354E9)
Complete name                            : Dark.Gathering.S01E20.1080p.AMZN.WEB-DL.DDP2.0.H.264-VARYG.mkv
Format                                   : Matroska
Format version                           : Version 4
File size                                : 1.31 GiB
Duration                                 : 23 min 42 s
Overall bit rate                         : 7 899 kb/s
Frame rate                               : 23.976 FPS
Encoded date                             : 2023-11-19 20:47:16 UTC
Writing application                      : mkvmerge v79.0 ('Funeral Pyres') 64-bit
Writing library                          : libebml v1.4.4 + libmatroska v1.7.1
Attachments                              : arial.ttf / NotoSans-Medium.ttf

Video
ID                                       : 1
Format                                   : AVC
Format/Info                              : Advanced Video Codec
Format profile                           : High@L4
Format settings                          : CABAC / 4 Ref Frames
Format settings, CABAC                   : Yes
Format settings, Reference frames        : 4 frames
Codec ID                                 : V_MPEG4/ISO/AVC
Duration                                 : 23 min 42 s
Bit rate mode                            : Constant
Bit rate                                 : 7 669 kb/s
Nominal bit rate                         : 10 000 kb/s
Width                                    : 1 920 pixels
Height                                   : 1 080 pixels
Display aspect ratio                     : 16:9
Frame rate mode                          : Constant
Frame rate                               : 23.976 (24000/1001) FPS
Color space                              : YUV
Chroma subsampling                       : 4:2:0
Bit depth                                : 8 bits
Scan type                                : Progressive
Bits/(Pixel*Frame)                       : 0.154
Stream size                              : 1.27 GiB (97%)
Default                                  : Yes
Forced                                   : No
Color range                              : Limited
Color primaries                          : BT.709
Transfer characteristics                 : BT.709
Matrix coefficients                      : BT.709

Audio
ID                                       : 2
Format                                   : E-AC-3
Format/Info                              : Enhanced AC-3
Commercial name                          : Dolby Digital Plus
Codec ID                                 : A_EAC3
Duration                                 : 23 min 42 s
Bit rate mode                            : Constant
Bit rate                                 : 224 kb/s
Channel(s)                               : 2 channels
Channel layout                           : L R
Sampling rate                            : 48.0 kHz
Frame rate                               : 31.250 FPS (1536 SPF)
Compression mode                         : Lossy
Stream size                              : 38.0 MiB (3%)
Language                                 : Japanese
Service kind                             : Complete Main
Default                                  : Yes
Forced                                   : No

Text #1
ID                                       : 3
Format                                   : ASS
Codec ID                                 : S_TEXT/ASS
Codec ID/Info                            : Advanced Sub Station Alpha
Duration                                 : 22 min 4 s
Bit rate                                 : 105 b/s
Frame rate                               : 0.219 FPS
Count of elements                        : 290
Compression mode                         : Lossless
Stream size                              : 17.0 KiB (0%)
Language                                 : English
Default                                  : Yes
Forced                                   : No

Text #2
ID                                       : 4
Format                                   : UTF-8
Codec ID                                 : S_TEXT/UTF8
Codec ID/Info                            : UTF-8 Plain Text
Duration                                 : 23 min 38 s
Bit rate                                 : 79 b/s
Frame rate                               : 0.274 FPS
Count of elements                        : 388
Stream size                              : 13.7 KiB (0%)
Title                                    : SDH
Language                                 : Japanese
Default                                  : No
Forced                                   : No

Menu
00:00:02.000                             : Intro
00:01:29.000                             : Scene 01
00:21:52.000                             : Credits
beta
Anime DDL+NZB mirror
Current Time: 25/05/2024 14:00



About/FAQs

Discord