[Cuck'd] FLCL - 06 (960x720 Hi10 FLAC) [B78CEC35].mkv


File Size1.807 GB (1,940,626,782 bytes)
DownloadClickNUpload | DropAPK
Free: Part1, Part2
MultiUp: Part1
  • BdUpload
  • DownAce
  • Fichier
  • FileCloud
  • Filerio
  • FilesCdn
  • IndiShare
  • Kbagi
  • Turbobit
  • UpToBox
  • Uppit
, Part2
  • BdUpload
  • DownAce
  • Fichier
  • FileCloud
  • Filerio
  • FilesCdn
  • IndiShare
  • Kbagi
  • Turbobit
  • UpToBox
  • Uppit
, Part3
  • BdUpload
  • DownAce
  • Fichier
  • FileCloud
  • Filerio
  • FilesCdn
  • IndiShare
  • Kbagi
  • Turbobit
  • UpToBox
  • Uppit
, Part4
  • BdUpload
  • DownAce
  • Fichier
  • FileCloud
  • Filerio
  • FilesCdn
  • IndiShare
  • Kbagi
  • Turbobit
  • UpToBox
  • Uppit

SolidFiles: Part1, Part2, Part3, Part4
ZippyShare: Part1, Part2, Part3, Part4
HashesCRC32: B78CEC35, MD5: 7BD61CD61EDA36FF5836CBE31806D444, SHA1: 81A19CF30870870875E0AB8970E2B51BE63AEDCA, SHA256: 0BF5C22F37C3846A56F31EB1390A65B3DB2123D18D3D3FD0C789011C6318AB86, ED2K: 96820F16762573975A07CC74D1181F03
Screenshots
screenshotscreenshotscreenshotscreenshotscreenshot
SubtitlesAll Attachments | Full Subs [eng, ASS], Signs/Songs [zxx, ASS]
Additional Info
General
Unique ID                                : 94435002948517909120280713631405842087 (0x470B851E917A04C74E53AA81358E1EA7)
Complete name                            : [Cuck'd] FLCL - 06 (960x720 Hi10 FLAC) [B78CEC35].mkv
Format                                   : Matroska
Format version                           : Version 4
File size                                : 1.81 GiB
Duration                                 : 30 min 55 s
Overall bit rate mode                    : Variable
Overall bit rate                         : 8 366 kb/s
Encoded date                             : UTC 2021-05-17 13:27:11
Writing application                      : mkvmerge v51.0.0 ('I Wish') 64-bit
Writing library                          : libebml v1.4.0 + libmatroska v1.6.2
Attachments                              : GEEKRG_.TTF / Happy_Hell.ttf / KozGoPro-Heavy.otf / KozMinPro-Heavy.otf / Dfheic.TTC / DREAMOFM.TTF / GANDHISANS-BOLD.OTF / GANDHISANS-BOLDITALIC.OTF

Video
ID                                       : 1
Format                                   : AVC
Format/Info                              : Advanced Video Codec
Format profile                           : High 10@L4
Format settings                          : CABAC / 9 Ref Frames
Format settings, CABAC                   : Yes
Format settings, ReFrames                : 9 frames
Codec ID                                 : V_MPEG4/ISO/AVC
Duration                                 : 30 min 55 s
Bit rate                                 : 6 682 kb/s
Width                                    : 960 pixels
Height                                   : 720 pixels
Display aspect ratio                     : 4:3
Frame rate mode                          : Constant
Frame rate                               : 23.976 (24000/1001) FPS
Color space                              : YUV
Chroma subsampling                       : 4:2:0
Bit depth                                : 10 bits
Scan type                                : Progressive
Bits/(Pixel*Frame)                       : 0.403
Stream size                              : 1.44 GiB (80%)
Writing library                          : x264 core 148 r2638kMod 7599210
Encoding settings                        : cabac=1 / ref=9 / deblock=1:-2:-2 / analyse=0x3:0x133 / me=umh / subme=10 / psy=1 / fade_compensate=0.00 / psy_rd=1.00:0.00 / mixed_ref=1 / me_range=32 / chroma_me=1 / trellis=2 / 8x8dct=1 / cqm=0 / deadzone=21,11 / fast_pskip=0 / chroma_qp_offset=-2 / threads=6 / lookahead_threads=1 / sliced_threads=0 / nr=0 / decimate=0 / interlaced=0 / bluray_compat=0 / constrained_intra=0 / fgo=0 / bframes=8 / b_pyramid=2 / b_adapt=2 / b_bias=0 / direct=1 / weightb=1 / open_gop=0 / weightp=2 / keyint=250 / keyint_min=23 / scenecut=40 / intra_refresh=0 / rc=crf / mbtree=0 / crf=15.5000 / qcomp=0.60 / qpmin=0 / qpmax=40 / qpstep=4 / ip_ratio=1.40 / pb_ratio=1.30 / aq=1:1.00 / zones=10961,12714,crf=18/41048,41712,crf=17/42009,42047,crf=17/42047,42571,crf=17.5/43172,43208,crf=17/43208,44190,crf=17.5
Language                                 : Japanese
Default                                  : Yes
Forced                                   : No
Color range                              : Limited
Color primaries                          : BT.709
Transfer characteristics                 : BT.709
Matrix coefficients                      : BT.709

Audio #1
ID                                       : 2
Format                                   : FLAC
Format/Info                              : Free Lossless Audio Codec
Codec ID                                 : A_FLAC
Duration                                 : 30 min 55 s
Bit rate mode                            : Variable
Bit rate                                 : 819 kb/s
Channel(s)                               : 2 channels
Channel layout                           : L R
Sampling rate                            : 48.0 kHz
Frame rate                               : 11.719 FPS (4096 SPF)
Bit depth                                : 16 bits
Compression mode                         : Lossless
Stream size                              : 181 MiB (10%)
Writing library                          : libFLAC 1.3.1 (UTC 2014-11-25)
Language                                 : Japanese
Default                                  : Yes
Forced                                   : No

Audio #2
ID                                       : 3
Format                                   : FLAC
Format/Info                              : Free Lossless Audio Codec
Codec ID                                 : A_FLAC
Duration                                 : 30 min 53 s
Bit rate mode                            : Variable
Bit rate                                 : 816 kb/s
Channel(s)                               : 2 channels
Channel layout                           : L R
Sampling rate                            : 48.0 kHz
Frame rate                               : 11.719 FPS (4096 SPF)
Bit depth                                : 16 bits
Compression mode                         : Lossless
Stream size                              : 180 MiB (10%)
Writing library                          : libFLAC 1.3.1 (UTC 2014-11-25)
Language                                 : English
Default                                  : No
Forced                                   : No

Text #1
ID                                       : 4
Format                                   : ASS
Codec ID                                 : S_TEXT/ASS
Codec ID/Info                            : Advanced Sub Station Alpha
Duration                                 : 30 min 29 s
Bit rate                                 : 96 b/s
Count of elements                        : 420
Compression mode                         : Lossless
Stream size                              : 21.5 KiB (0%)
Title                                    : Full Subs
Language                                 : English
Default                                  : Yes
Forced                                   : No

Text #2
ID                                       : 5
Format                                   : ASS
Codec ID                                 : S_TEXT/ASS
Codec ID/Info                            : Advanced Sub Station Alpha
Duration                                 : 28 min 48 s
Bit rate                                 : 12 b/s
Count of elements                        : 42
Compression mode                         : Lossless
Stream size                              : 2.54 KiB (0%)
Title                                    : Signs/Songs
Language                                 : zxx
Default                                  : No
Forced                                   : No

Other Files in this Torrent
[Cuck'd] FLCL - 06 (960x720 Hi10 FLAC) [B78CEC35].mkv
beta
Anime DDL+NZB mirror
Current Time: 03/08/2021 18:35



About/FAQs