[Cuck'd] FLCL - 01 (960x720 Hi10 FLAC) [5E70B897].mkv


File Size1.243 GB (1,334,571,057 bytes)
DownloadClickNUpload | DropAPK
Free: Part1, Part2
MultiUp: Part1
  • BdUpload
  • DownAce
  • Fichier
  • FileCloud
  • Filerio
  • FilesCdn
  • IndiShare
  • Kbagi
  • Turbobit
  • UpToBox
  • Uppit
, Part2
  • BdUpload
  • DownAce
  • Fichier
  • FileCloud
  • Filerio
  • FilesCdn
  • IndiShare
  • Kbagi
  • Turbobit
  • UpToBox
  • Uppit
, Part3
  • BdUpload
  • DownAce
  • Fichier
  • FileCloud
  • Filerio
  • FilesCdn
  • IndiShare
  • Kbagi
  • Turbobit
  • UpToBox
  • Uppit

SolidFiles: Part1, Part2, Part3
ZippyShare: Part1, Part2, Part3
HashesCRC32: 5E70B897, MD5: F44269D52B860DAA34F3BC331D1A9C8D, SHA1: FA9469611A2EBE9B521CFD154F727B02366EE865, SHA256: 0B1DDD6098501C615BB28C95965082A5644B019491ED7FD30A75EE7BB98B8DFD, ED2K: C0BBCA836E7C6DB479B14F25BED21049
Screenshots
screenshotscreenshotscreenshotscreenshotscreenshot
SubtitlesAll Attachments | Full Subs [eng, ASS], Signs/Songs [zxx, ASS]
Additional Info
General
Unique ID                                : 301542336194919147395308359829103758124 (0xE2DAF104B0E03A8BB2F4131860E6CB2C)
Complete name                            : [Cuck'd] FLCL - 01 (960x720 Hi10 FLAC) [5E70B897].mkv
Format                                   : Matroska
Format version                           : Version 4
File size                                : 1.24 GiB
Duration                                 : 24 min 37 s
Overall bit rate mode                    : Variable
Overall bit rate                         : 7 224 kb/s
Encoded date                             : UTC 2021-05-17 13:26:16
Writing application                      : mkvmerge v51.0.0 ('I Wish') 64-bit
Writing library                          : libebml v1.4.0 + libmatroska v1.6.2
Attachments                              : DREAMOFM.TTF / GEEKRG_.TTF / Happy_Hell.ttf / KozGoPro-Heavy.otf / KozMinPro-Heavy.otf / Dfheic.TTC / GANDHISANS-BOLDITALIC.OTF / GANDHISANS-BOLD.OTF

Video
ID                                       : 1
Format                                   : AVC
Format/Info                              : Advanced Video Codec
Format profile                           : High 10@L4
Format settings                          : CABAC / 9 Ref Frames
Format settings, CABAC                   : Yes
Format settings, ReFrames                : 9 frames
Codec ID                                 : V_MPEG4/ISO/AVC
Duration                                 : 24 min 37 s
Bit rate                                 : 5 671 kb/s
Width                                    : 960 pixels
Height                                   : 720 pixels
Display aspect ratio                     : 4:3
Frame rate mode                          : Constant
Frame rate                               : 23.976 (24000/1001) FPS
Color space                              : YUV
Chroma subsampling                       : 4:2:0
Bit depth                                : 10 bits
Scan type                                : Progressive
Bits/(Pixel*Frame)                       : 0.342
Stream size                              : 999 MiB (78%)
Writing library                          : x264 core 148 r2638kMod 7599210
Encoding settings                        : cabac=1 / ref=9 / deblock=1:-2:-2 / analyse=0x3:0x133 / me=umh / subme=10 / psy=1 / fade_compensate=0.00 / psy_rd=1.00:0.00 / mixed_ref=1 / me_range=32 / chroma_me=1 / trellis=2 / 8x8dct=1 / cqm=0 / deadzone=21,11 / fast_pskip=0 / chroma_qp_offset=-2 / threads=6 / lookahead_threads=1 / sliced_threads=0 / nr=0 / decimate=0 / interlaced=0 / bluray_compat=0 / constrained_intra=0 / fgo=0 / bframes=8 / b_pyramid=2 / b_adapt=2 / b_bias=0 / direct=1 / weightb=1 / open_gop=0 / weightp=2 / keyint=250 / keyint_min=23 / scenecut=40 / intra_refresh=0 / rc=crf / mbtree=0 / crf=15.5000 / qcomp=0.60 / qpmin=0 / qpmax=40 / qpstep=4 / ip_ratio=1.40 / pb_ratio=1.30 / aq=1:1.00 / zones=15844,19134,crf=18/31422,32099,crf=17/32397,32436,crf=17/32437,32959,crf=17.5/33560,33597,crf=17/33598,34740,crf=17.5
Language                                 : Japanese
Default                                  : Yes
Forced                                   : No
Color range                              : Limited
Color primaries                          : BT.709
Transfer characteristics                 : BT.709
Matrix coefficients                      : BT.709

Audio #1
ID                                       : 2
Format                                   : FLAC
Format/Info                              : Free Lossless Audio Codec
Codec ID                                 : A_FLAC
Duration                                 : 24 min 37 s
Bit rate mode                            : Variable
Bit rate                                 : 738 kb/s
Channel(s)                               : 2 channels
Sampling rate                            : 48.0 kHz
Frame rate                               : 11.719 FPS (4096 SPF)
Bit depth                                : 16 bits
Compression mode                         : Lossless
Stream size                              : 130 MiB (10%)
Writing library                          : libFLAC 1.3.1 (UTC 2014-11-25)
Language                                 : Japanese
Default                                  : Yes
Forced                                   : No

Audio #2
ID                                       : 3
Format                                   : FLAC
Format/Info                              : Free Lossless Audio Codec
Codec ID                                 : A_FLAC
Duration                                 : 24 min 37 s
Bit rate mode                            : Variable
Bit rate                                 : 753 kb/s
Channel(s)                               : 2 channels
Channel layout                           : L R
Sampling rate                            : 48.0 kHz
Frame rate                               : 11.719 FPS (4096 SPF)
Bit depth                                : 16 bits
Compression mode                         : Lossless
Stream size                              : 133 MiB (10%)
Writing library                          : libFLAC 1.3.1 (UTC 2014-11-25)
Language                                 : English
Default                                  : No
Forced                                   : No

Text #1
ID                                       : 4
Format                                   : ASS
Codec ID                                 : S_TEXT/ASS
Codec ID/Info                            : Advanced Sub Station Alpha
Duration                                 : 24 min 30 s
Bit rate                                 : 111 b/s
Count of elements                        : 388
Compression mode                         : Lossless
Stream size                              : 20.1 KiB (0%)
Title                                    : Full Subs
Language                                 : English
Default                                  : Yes
Forced                                   : No

Text #2
ID                                       : 5
Format                                   : ASS
Codec ID                                 : S_TEXT/ASS
Codec ID/Info                            : Advanced Sub Station Alpha
Duration                                 : 21 min 52 s
Bit rate                                 : 19 b/s
Count of elements                        : 44
Compression mode                         : Lossless
Stream size                              : 3.14 KiB (0%)
Title                                    : Signs/Songs
Language                                 : zxx
Default                                  : No
Forced                                   : No

Other Files in this Torrent
[Cuck'd] FLCL - 01 (960x720 Hi10 FLAC) [5E70B897].mkv
beta
Anime DDL+NZB mirror
Current Time: 03/08/2021 17:49



About/FAQs