[Commie] SK8 the Infinity - Eyecatch 3 [BD 720p AAC] [339FC021].mkv


File Size3.138 MB (3,290,629 bytes)
DownloadAnonFiles | ClickNUpload | DropAPK | Free | MultiUp
  • BdUpload
  • DownAce
  • Fichier
  • FileCloud
  • Filerio
  • FilesCdn
  • IndiShare
  • Kbagi
  • Turbobit
  • UpToBox
  • Uppit
| SolidFiles | ZippyShare
HashesCRC32: 339FC021, MD5: 13AF39A7FB3ABD529F542C23FD304E4E, SHA1: 4BA7762AD45F2E187EA58A01F7DDB2AD503CDD90, SHA256: 5A736DB89CB10F37DF616EBA24AA0A60726209870586CE1B97E1EA95463949DF, ED2K: F7FCF2700635A902DFC24D159F569608
Screenshots
screenshot
SubtitlesAll Attachments | eng [ASS]
Additional Info
General
Unique ID                                : 177032724339704024069771206659377152792 (0x852F4332D25FAA9C3F1FFD46D98B4318)
Complete name                            : [Commie] SK8 the Infinity - Eyecatch 3 [BD 720p AAC] [339FC021].mkv
Format                                   : Matroska
Format version                           : Version 4
File size                                : 3.14 MiB
Duration                                 : 7 s 18 ms
Overall bit rate                         : 3 751 kb/s
Encoded date                             : UTC 2021-05-18 02:23:52
Writing application                      : mkvmerge v56.1.0 ('My Friend') 64-bit
Writing library                          : libebml v1.4.2 + libmatroska v1.6.4
Attachments                              : LTFinnegan_Medium.ttf / scott.ttf

Video
ID                                       : 1
Format                                   : AVC
Format/Info                              : Advanced Video Codec
Format profile                           : High 4:4:4 Predictive@L5
Format settings                          : CABAC / 16 Ref Frames
Format settings, CABAC                   : Yes
Format settings, ReFrames                : 16 frames
Codec ID                                 : V_MPEG4/ISO/AVC
Duration                                 : 6 s 966 ms
Bit rate                                 : 3 515 kb/s
Width                                    : 1 280 pixels
Height                                   : 720 pixels
Display aspect ratio                     : 16:9
Frame rate mode                          : Constant
Frame rate                               : 23.976 (23976/1000) FPS
Original frame rate                      : 23.976 (24000/1001) FPS
Chroma subsampling                       : 4:4:4
Bit depth                                : 10 bits
Scan type                                : Progressive
Bits/(Pixel*Frame)                       : 0.159
Stream size                              : 2.92 MiB (93%)
Writing library                          : x264 core 161 r3048+53M 0749c36 t_mod_New [(8 & 10)-bit@all X86_64]
Encoding settings                        : cabac=1 / ref=16 / deblock=1:0:0 / analyse=0x3:0x133 / me=umh / subme=10 / psy=1 / fade_compensate=0.72 / psy_rd=0.80:0.20 / mixed_ref=1 / me_range=24 / chroma_me=1 / trellis=2 / 8x8dct=1 / cqm=0 / deadzone=21,11 / fast_pskip=1 / chroma_qp_offset=3 / threads=18 / lookahead_threads=4 / sliced_threads=0 / nr=0 / decimate=1 / interlaced=0 / bluray_compat=0 / constrained_intra=0 / fgo=0 / bframes=16 / b_pyramid=2 / b_adapt=2 / b_bias=0 / direct=3 / weightb=1 / open_gop=0 / weightp=2 / keyint=250 / keyint_min=23 / scenecut=40 / intra_refresh=0 / rc_lookahead=60 / rc=crf / mbtree=1 / crf=15.0000 / qcomp=0.72 / qpmin=0:0:0 / qpmax=81:81:81 / qpstep=4 / ip_ratio=1.40 / aq=3:0.80 / aq-sensitivity=10.00 / aq-factor=1.00:1.00:1.00 / aq2=0 / aq3=0
Language                                 : English
Default                                  : Yes
Forced                                   : No

Audio
ID                                       : 2
Format                                   : AAC LC
Format/Info                              : Advanced Audio Codec Low Complexity
Codec ID                                 : A_AAC-2
Duration                                 : 7 s 18 ms
Bit rate                                 : 112 kb/s
Channel(s)                               : 2 channels
Channel layout                           : L R
Sampling rate                            : 48.0 kHz
Frame rate                               : 46.875 FPS (1024 SPF)
Compression mode                         : Lossy
Stream size                              : 95.9 KiB (3%)
Language                                 : Japanese
Default                                  : Yes
Forced                                   : No

Text
ID                                       : 3
Format                                   : ASS
Codec ID                                 : S_TEXT/ASS
Codec ID/Info                            : Advanced Sub Station Alpha
Duration                                 : 5 s 450 ms
Bit rate                                 : 2 828 b/s
Count of elements                        : 21
Compression mode                         : Lossless
Stream size                              : 1.88 KiB (0%)
Language                                 : English
Default                                  : Yes
Forced                                   : No

Other Files in this Torrent
[Commie] SK8 the Infinity - Eyecatch 3 [BD 720p AAC] [339FC021].mkv
beta
Anime DDL+NZB mirror
Current Time: 24/07/2021 23:31



About/FAQs