[Commie] SK8 the Infinity - 04 [BD 720p AAC] [0C13F924].mkv


File Size643.4 MB (674,646,557 bytes)
DownloadClickNUpload | DropAPK | Free
MultiUp: Part1
  • BdUpload
  • DownAce
  • Fichier
  • FileCloud
  • Filerio
  • FilesCdn
  • IndiShare
  • Kbagi
  • Turbobit
  • UpToBox
  • Uppit
, Part2
  • BdUpload
  • DownAce
  • Fichier
  • FileCloud
  • Filerio
  • FilesCdn
  • IndiShare
  • Kbagi
  • Turbobit
  • UpToBox
  • Uppit

SolidFiles: Part1, Part2
ZippyShare: Part1, Part2
HashesCRC32: 0C13F924, MD5: DB61A00DDE6FB30A6D460615AB99E4FF, SHA1: 8A8DDD05D86925FBCA3AD46221FEEFDF876893B5, SHA256: 2EF190C093E7DF3469CCED9D47E158190D77E9C750193AD0EDD7F0759FE43CCC, ED2K: 301A1DD5A8BBFD9CBD52D7398E545404
Screenshots
screenshotscreenshotscreenshotscreenshotscreenshot
SubtitlesAll Attachments | eng [ASS], Songs + Signs [eng, ASS]
Additional Info
General
Unique ID                                : 267223002762496137496623144039438047289 (0xC909473DAE7CF6284577A6193FFB5839)
Complete name                            : [Commie] SK8 the Infinity - 04 [BD 720p AAC] [0C13F924].mkv
Format                                   : Matroska
Format version                           : Version 4
File size                                : 643 MiB
Duration                                 : 23 min 55 s
Overall bit rate                         : 3 761 kb/s
Encoded date                             : UTC 2021-05-18 02:21:35
Writing application                      : mkvmerge v56.1.0 ('My Friend') 64-bit
Writing library                          : libebml v1.4.2 + libmatroska v1.6.4
Attachments                              : Arial Rounded MT.ttf / BRLNSDB.TTF / Denne s Old Handwriting.ttf / FRADM.TTF / LAURENCB.TTF / LTFinnegan_Medium.ttf / LTFinnegan_MediumItalic.ttf / madpakkeDEMO.otf / OldSansBlack.ttf / WCManoNegraBta.ttf

Video
ID                                       : 1
Format                                   : AVC
Format/Info                              : Advanced Video Codec
Format profile                           : High 4:4:4 Predictive@L5
Format settings                          : CABAC / 16 Ref Frames
Format settings, CABAC                   : Yes
Format settings, ReFrames                : 16 frames
Codec ID                                 : V_MPEG4/ISO/AVC
Duration                                 : 23 min 55 s
Bit rate                                 : 3 331 kb/s
Width                                    : 1 280 pixels
Height                                   : 720 pixels
Display aspect ratio                     : 16:9
Frame rate mode                          : Constant
Frame rate                               : 23.976 (24000/1001) FPS
Chroma subsampling                       : 4:4:4
Bit depth                                : 10 bits
Scan type                                : Progressive
Bits/(Pixel*Frame)                       : 0.151
Stream size                              : 570 MiB (89%)
Writing library                          : x264 core 161 r3048+53M 0749c36 t_mod_New [(8 & 10)-bit@all X86_64]
Encoding settings                        : cabac=1 / ref=16 / deblock=1:0:0 / analyse=0x3:0x133 / me=umh / subme=10 / psy=1 / fade_compensate=0.72 / psy_rd=0.80:0.20 / mixed_ref=1 / me_range=24 / chroma_me=1 / trellis=2 / 8x8dct=1 / cqm=0 / deadzone=21,11 / fast_pskip=1 / chroma_qp_offset=3 / threads=18 / lookahead_threads=4 / sliced_threads=0 / nr=0 / decimate=1 / interlaced=0 / bluray_compat=0 / constrained_intra=0 / fgo=0 / bframes=16 / b_pyramid=2 / b_adapt=2 / b_bias=0 / direct=3 / weightb=1 / open_gop=0 / weightp=2 / keyint=250 / keyint_min=23 / scenecut=40 / intra_refresh=0 / rc_lookahead=60 / rc=crf / mbtree=1 / crf=15.0000 / qcomp=0.72 / qpmin=0:0:0 / qpmax=81:81:81 / qpstep=4 / ip_ratio=1.40 / aq=3:0.80 / aq-sensitivity=10.00 / aq-factor=1.00:1.00:1.00 / aq2=0 / aq3=0
Language                                 : English
Default                                  : Yes
Forced                                   : No

Audio #1
ID                                       : 2
Format                                   : AAC LC
Format/Info                              : Advanced Audio Codec Low Complexity
Codec ID                                 : A_AAC-2
Duration                                 : 23 min 55 s
Bit rate                                 : 160 kb/s
Channel(s)                               : 2 channels
Channel layout                           : L R
Sampling rate                            : 48.0 kHz
Frame rate                               : 46.875 FPS (1024 SPF)
Compression mode                         : Lossy
Stream size                              : 27.4 MiB (4%)
Language                                 : Japanese
Default                                  : Yes
Forced                                   : No

Audio #2
ID                                       : 3
Format                                   : AAC LC
Format/Info                              : Advanced Audio Codec Low Complexity
Codec ID                                 : A_AAC-2
Duration                                 : 23 min 55 s
Bit rate                                 : 253 kb/s
Channel(s)                               : 2 channels
Channel layout                           : L R
Sampling rate                            : 48.0 kHz
Frame rate                               : 46.875 FPS (1024 SPF)
Compression mode                         : Lossy
Stream size                              : 43.3 MiB (7%)
Language                                 : English
Default                                  : No
Forced                                   : No

Text #1
ID                                       : 4
Format                                   : ASS
Codec ID                                 : S_TEXT/ASS
Codec ID/Info                            : Advanced Sub Station Alpha
Duration                                 : 23 min 53 s
Bit rate                                 : 4 162 b/s
Count of elements                        : 1127
Compression mode                         : Lossless
Stream size                              : 728 KiB (0%)
Language                                 : English
Default                                  : Yes
Forced                                   : No

Text #2
ID                                       : 5
Format                                   : ASS
Codec ID                                 : S_TEXT/ASS
Codec ID/Info                            : Advanced Sub Station Alpha
Duration                                 : 21 min 59 s
Bit rate                                 : 4 392 b/s
Count of elements                        : 707
Compression mode                         : Lossless
Stream size                              : 707 KiB (0%)
Title                                    : Songs + Signs
Language                                 : English
Default                                  : No
Forced                                   : No

Menu
00:00:00.033                             : Intro
00:01:42.000                             : OP
00:03:11.960                             : Part A
00:12:36.990                             : Part B
00:22:00.010                             : ED
00:23:30.060                             : Preview

Other Files in this Torrent
[Commie] SK8 the Infinity - 04 [BD 720p AAC] [0C13F924].mkv
beta
Anime DDL+NZB mirror
Current Time: 25/07/2021 00:36



About/FAQs