[Commie] Koyomimonogatari - 04 [BD 720p AAC] [6E3E48DA].mkv


File Size261.2 MB (273,899,892 bytes)
DownloadAnonFiles | ClickNUpload | DropAPK | Free | MultiUp
  • BdUpload
  • DownAce
  • Fichier
  • FileCloud
  • Filerio
  • FilesCdn
  • IndiShare
  • Kbagi
  • Turbobit
  • UpToBox
  • Uppit
| Sendspace | SolidFiles | ZippyShare
HashesCRC32: 6E3E48DA, MD5: B64F72C4687AAFCBB3534785E715C899, SHA1: 8B99B0E3B10B1F9B44F5E76BB9ED97DF597BD668, SHA256: 8FA8CF98BEC4403945775A222587E0B16497E084F4F8C935CBDA431FBE21EEA2, ED2K: 2F02A8882715F8DDB819B633025F9988
Screenshots
screenshotscreenshotscreenshotscreenshotscreenshot
SubtitlesAll Attachments | eng [ASS]
Additional Info
General
Unique ID                                : 327661442074363680395598712730725852171 (0xF6814C5CD0188B4B28FB361BF0B7240B)
Complete name                            : [Commie] Koyomimonogatari - 04 [BD 720p AAC] [6E3E48DA].mkv
Format                                   : Matroska
Format version                           : Version 4
File size                                : 261 MiB
Duration                                 : 12 min 34 s
Overall bit rate                         : 2 903 kb/s
Encoded date                             : UTC 2020-05-13 03:21:54
Writing application                      : mkvmerge v46.0.0 ('No Deeper Escape') 64-bit
Writing library                          : libebml v1.3.10 + libmatroska v1.5.2
Attachments                              : Aquifer.ttf / BirchStd.otf / BRIOMN.TTF / HANDWRITTEN_CRYSTAL_V2.TTF / HARLC_.TTF / IwaMinPro-Lt-Madoka.ttf / IwaOMinPro-Bd-Fate.ttf / Montara-Gothic.otf / Montara-Italic.otf / Reswysokr.otf

Video
ID                                       : 1
Format                                   : AVC
Format/Info                              : Advanced Video Codec
Format profile                           : High 10@L5
Format settings                          : CABAC / 16 Ref Frames
Format settings, CABAC                   : Yes
Format settings, ReFrames                : 16 frames
Codec ID                                 : V_MPEG4/ISO/AVC
Duration                                 : 12 min 34 s
Bit rate                                 : 2 717 kb/s
Width                                    : 1 280 pixels
Height                                   : 720 pixels
Display aspect ratio                     : 16:9
Frame rate mode                          : Constant
Frame rate                               : 23.976 (24000/1001) FPS
Color space                              : YUV
Chroma subsampling                       : 4:2:0
Bit depth                                : 10 bits
Scan type                                : Progressive
Bits/(Pixel*Frame)                       : 0.123
Stream size                              : 244 MiB (94%)
Writing library                          : x264 core 157 r2970+47 cae74a0 t_mod_New [0-bit@all X86_64]
Encoding settings                        : cabac=1 / ref=16 / deblock=1:0:0 / analyse=0x3:0x133 / me=umh / subme=10 / psy=1 / fade_compensate=0.80 / psy_rd=0.80:0.20 / mixed_ref=1 / me_range=24 / chroma_me=1 / trellis=2 / 8x8dct=1 / cqm=0 / deadzone=21,11 / fast_pskip=1 / chroma_qp_offset=-3 / threads=12 / lookahead_threads=3 / sliced_threads=0 / nr=0 / decimate=1 / interlaced=0 / bluray_compat=0 / constrained_intra=0 / fgo=0 / bframes=16 / b_pyramid=2 / b_adapt=2 / b_bias=0 / direct=3 / weightb=1 / open_gop=0 / weightp=2 / keyint=250 / keyint_min=23 / scenecut=40 / intra_refresh=0 / rc_lookahead=60 / rc=crf / mbtree=1 / crf=14.5000 / qcomp=0.75 / qpmin=0:0:0 / qpmax=81:81:81 / qpstep=4 / ip_ratio=1.40 / aq=3:0.80 / aq-sensitivity=10.00 / aq-factor=1.00:1.00:1.00 / aq2=0 / aq3=0
Language                                 : English
Default                                  : Yes
Forced                                   : No

Audio
ID                                       : 2
Format                                   : AAC LC
Format/Info                              : Advanced Audio Codec Low Complexity
Codec ID                                 : A_AAC-2
Duration                                 : 12 min 34 s
Bit rate                                 : 161 kb/s
Channel(s)                               : 2 channels
Channel layout                           : L R
Sampling rate                            : 48.0 kHz
Frame rate                               : 46.875 FPS (1024 SPF)
Compression mode                         : Lossy
Stream size                              : 14.5 MiB (6%)
Language                                 : Japanese
Default                                  : Yes
Forced                                   : No

Text
ID                                       : 3
Format                                   : ASS
Codec ID                                 : S_TEXT/ASS
Codec ID/Info                            : Advanced Sub Station Alpha
Duration                                 : 12 min 30 s
Bit rate                                 : 550 b/s
Count of elements                        : 497
Compression mode                         : Lossless
Stream size                              : 50.5 KiB (0%)
Language                                 : English
Default                                  : Yes
Forced                                   : No

Menu
00:00:00.000                             : en:OP
00:01:29.940                             : en:Episode
00:11:04.720                             : en:ED

Other Files in this Torrent
[Commie] Koyomimonogatari - 04 [BD 720p AAC] [6E3E48DA].mkv
beta
Anime DDL+NZB mirror
Current Time: 13/07/2024 19:07



About/FAQs

Discord