[Commie] Koyomimonogatari - 01 [BD 720p AAC] [9D0C96B5].mkv


File Size236.2 MB (247,685,868 bytes)
DownloadAnonFiles | ClickNUpload | DropAPK | Free | MultiUp
  • BdUpload
  • DownAce
  • Fichier
  • FileCloud
  • Filerio
  • FilesCdn
  • IndiShare
  • Kbagi
  • Turbobit
  • UpToBox
  • Uppit
| Sendspace | SolidFiles | ZippyShare
HashesCRC32: 9D0C96B5, MD5: EB7733B49782FA06FD47CEA71B44BE90, SHA1: 11DE1D14F2B291B1DE22D3B730294B46DE7E081C, SHA256: 6B0038E50F1340E78E9E9D3D53A2BD1F979D59A5A791161D139FBD4B085D6BE6, ED2K: F7F7A699D31B52E027723B4FA8E9C687
Screenshots
screenshotscreenshotscreenshotscreenshotscreenshot
SubtitlesAll Attachments | eng [ASS]
Additional Info
General
Unique ID                                : 123369957244338030181702123443103163718 (0x5CD0308261AC5DAE882DD25991176546)
Complete name                            : [Commie] Koyomimonogatari - 01 [BD 720p AAC] [9D0C96B5].mkv
Format                                   : Matroska
Format version                           : Version 4
File size                                : 236 MiB
Duration                                 : 13 min 42 s
Overall bit rate                         : 2 410 kb/s
Encoded date                             : UTC 2020-05-11 21:59:31
Writing application                      : mkvmerge v46.0.0 ('No Deeper Escape') 64-bit
Writing library                          : libebml v1.3.10 + libmatroska v1.5.2
Attachments                              : Aquifer.ttf / Arkona-Regular-Regular.ttf / BirchStd.otf / IwaMinPro-Lt-Madoka_0.ttf / Montara-Gothic_0.otf / Montara-Italic_0.otf

Video
ID                                       : 1
Format                                   : AVC
Format/Info                              : Advanced Video Codec
Format profile                           : High 10@L5
Format settings                          : CABAC / 16 Ref Frames
Format settings, CABAC                   : Yes
Format settings, ReFrames                : 16 frames
Codec ID                                 : V_MPEG4/ISO/AVC
Duration                                 : 13 min 42 s
Bit rate                                 : 2 237 kb/s
Width                                    : 1 280 pixels
Height                                   : 720 pixels
Display aspect ratio                     : 16:9
Frame rate mode                          : Constant
Frame rate                               : 23.976 (24000/1001) FPS
Color space                              : YUV
Chroma subsampling                       : 4:2:0
Bit depth                                : 10 bits
Scan type                                : Progressive
Bits/(Pixel*Frame)                       : 0.101
Stream size                              : 219 MiB (93%)
Writing library                          : x264 core 155 r2867+74 66b5600 t_mod_Custom_2 [10-bit@all X86_64]
Encoding settings                        : cabac=1 / ref=16 / deblock=1:0:0 / analyse=0x3:0x133 / me=umh / subme=10 / psy=1 / fade_compensate=0.80 / psy_rd=0.80:0.20 / mixed_ref=1 / me_range=24 / chroma_me=1 / trellis=2 / 8x8dct=1 / cqm=0 / deadzone=21,11 / fast_pskip=1 / chroma_qp_offset=-3 / threads=12 / lookahead_threads=3 / sliced_threads=0 / nr=0 / decimate=1 / interlaced=0 / bluray_compat=0 / constrained_intra=0 / fgo=0 / bframes=16 / b_pyramid=2 / b_adapt=2 / b_bias=0 / direct=3 / weightb=1 / open_gop=0 / weightp=2 / keyint=250 / keyint_min=23 / scenecut=40 / intra_refresh=0 / rc_lookahead=60 / rc=crf / mbtree=1 / crf=14.5000 / qcomp=0.75 / qpmin=0:0:0 / qpmax=81:81:81 / qpstep=4 / ip_ratio=1.40 / aq=3:0.80 / aq-sensitivity=10.00 / aq-factor=1.00:1.00:1.00 / aq2=0 / aq3=0
Language                                 : English
Default                                  : Yes
Forced                                   : No

Audio
ID                                       : 2
Format                                   : AAC LC
Format/Info                              : Advanced Audio Codec Low Complexity
Codec ID                                 : A_AAC-2
Duration                                 : 13 min 42 s
Bit rate                                 : 162 kb/s
Channel(s)                               : 2 channels
Channel layout                           : L R
Sampling rate                            : 48.0 kHz
Frame rate                               : 46.875 FPS (1024 SPF)
Compression mode                         : Lossy
Stream size                              : 15.9 MiB (7%)
Language                                 : Japanese
Default                                  : Yes
Forced                                   : No

Text
ID                                       : 3
Format                                   : ASS
Codec ID                                 : S_TEXT/ASS
Codec ID/Info                            : Advanced Sub Station Alpha
Duration                                 : 13 min 37 s
Bit rate                                 : 204 b/s
Count of elements                        : 281
Compression mode                         : Lossless
Stream size                              : 20.5 KiB (0%)
Language                                 : English
Default                                  : Yes
Forced                                   : No

Menu
00:00:00.000                             : en:OP
00:01:30.060                             : en:Episode
00:12:12.040                             : en:ED

Other Files in this Torrent
[Commie] Koyomimonogatari - 01 [BD 720p AAC] [9D0C96B5].mkv
beta
Anime DDL+NZB mirror
Current Time: 13/07/2024 19:05



About/FAQs

Discord