[Cleo]One_Punch_Man_-_11_(Dual Audio_10bit_BD720p).mkv


File Size179.3 MB (187,987,512 bytes)
DownloadGo4Up | Jheberg | MultiUp | OpenLoad | Sendspace | SolidFiles | UsersCloud
HashesCRC32: 7E256F7C, MD5: 07983746F387AE475283759A22CF2548, SHA1: 528B07BE5ADAC4EAC0185327F88F52FBDE430456, SHA256: 1D1C07B05562A8B80E92B712C38A6DD051D199745035A1061EEC3172A87A2392, ED2K: 09BDD01EFC30C8D8324A5D0A6BA4335C
Screenshots
screenshotscreenshotscreenshotscreenshotscreenshot
SubtitlesAll Attachments | eng [ASS]
Additional Info
General
Unique ID                                : 202324997033713349305369330137026383952 (0x98366084F11083FDA26A48DB0591D050)
Complete name                            : [Cleo]One_Punch_Man_-_11_(Dual Audio_10bit_BD720p).mkv
Format                                   : Matroska
Format version                           : Version 4 / Version 2
File size                                : 179 MiB
Duration                                 : 24 min 21 s
Overall bit rate                         : 1 029 kb/s
Movie name                               : Encoded By Cleo
Encoded date                             : UTC 2016-10-03 08:50:03
Writing application                      : mkvmerge v9.2.0 ('Photograph') 64bit
Writing library                          : libebml v1.3.3 + libmatroska v1.4.4

Video
ID                                       : 1
Format                                   : AVC
Format/Info                              : Advanced Video Codec
Format profile                           : High 10@L5.1
Format settings, CABAC                   : Yes
Format settings, ReFrames                : 16 frames
Codec ID                                 : V_MPEG4/ISO/AVC
Duration                                 : 24 min 21 s
Bit rate                                 : 855 kb/s
Width                                    : 1 280 pixels
Height                                   : 720 pixels
Display aspect ratio                     : 16:9
Frame rate mode                          : Constant
Frame rate                               : 23.976 (24000/1001) FPS
Color space                              : YUV
Chroma subsampling                       : 4:2:0
Bit depth                                : 10 bits
Scan type                                : Progressive
Bits/(Pixel*Frame)                       : 0.039
Stream size                              : 149 MiB (83%)
Writing library                          : x264 core 142 r2479kMod dd79a61
Encoding settings                        : cabac=1 / ref=16 / deblock=1:0:0 / analyse=0x3:0x133 / me=umh / subme=10 / psy=1 / fade_compensate=0.00 / psy_rd=1.00:0.00 / mixed_ref=1 / me_range=24 / chroma_me=1 / trellis=2 / 8x8dct=1 / cqm=0 / deadzone=21,11 / fast_pskip=1 / chroma_qp_offset=-2 / threads=3 / lookahead_threads=1 / sliced_threads=0 / nr=0 / decimate=1 / interlaced=0 / bluray_compat=0 / constrained_intra=0 / fgo=0 / bframes=8 / b_pyramid=2 / b_adapt=2 / b_bias=0 / direct=3 / weightb=1 / open_gop=0 / weightp=2 / keyint=250 / keyint_min=23 / scenecut=40 / intra_refresh=0 / rc_lookahead=60 / rc=crf / mbtree=1 / crf=24.0000 / qcomp=0.60 / qpmin=0 / qpmax=81 / qpstep=4 / ip_ratio=1.40 / aq=1:1.00
Language                                 : English
Default                                  : Yes
Forced                                   : No

Audio #1
ID                                       : 2
Format                                   : AAC
Format/Info                              : Advanced Audio Codec
Format profile                           : Main
Codec ID                                 : A_AAC
Duration                                 : 24 min 21 s
Bit rate                                 : 77.3 kb/s
Channel(s)                               : 2 channels
Channel positions                        : Front: L R
Sampling rate                            : 48.0 kHz
Frame rate                               : 46.875 FPS (1024 spf)
Compression mode                         : Lossy
Stream size                              : 13.5 MiB (8%)
Language                                 : Japanese
Default                                  : No
Forced                                   : No

Audio #2
ID                                       : 3
Format                                   : AAC
Format/Info                              : Advanced Audio Codec
Format profile                           : Main
Codec ID                                 : A_AAC
Duration                                 : 24 min 20 s
Bit rate                                 : 93.6 kb/s
Channel(s)                               : 2 channels
Channel positions                        : Front: L R
Sampling rate                            : 48.0 kHz
Frame rate                               : 46.875 FPS (1024 spf)
Compression mode                         : Lossy
Delay relative to video                  : 13 ms
Stream size                              : 16.3 MiB (9%)
Language                                 : English
Default                                  : Yes
Forced                                   : No

Text
ID                                       : 4
Format                                   : ASS
Codec ID                                 : S_TEXT/ASS
Codec ID/Info                            : Advanced Sub Station Alpha
Duration                                 : 23 min 44 s
Bit rate                                 : 148 b/s
Count of elements                        : 395
Compression mode                         : Lossless
Stream size                              : 25.8 KiB (0%)
Language                                 : English
Default                                  : Yes
Forced                                   : No

Other Files in this Torrent
[Cleo]One_Punch_Man_-_11_(Dual Audio_10bit_BD720p).mkv
beta
Anime DDL+NZB mirror
Current Time: 30/11/2021 10:07



About/FAQs

Discord