[Cleo]One_Punch_Man_-_06_(Dual Audio_10bit_BD720p).mkv


File Size141.2 MB (148,019,396 bytes)
DownloadGo4Up | Jheberg | MultiUp | OpenLoad | Sendspace | SolidFiles | UsersCloud
HashesCRC32: 3B1FD0F2, MD5: C3735815FF9E9124B358FFA68620A25B, SHA1: 507ED152DDEBD198DE717B2D3B149E40735BD201, SHA256: C981B8CB74BF481E86A54B69BB6543D6035343953EEAC3B11E6BE5132406D34B, ED2K: EAF3C5AD177F362CC5A35BF30C8A4727
Screenshots
screenshotscreenshotscreenshotscreenshotscreenshot
SubtitlesAll Attachments | eng [ASS]
Additional Info
General
Unique ID                                : 172246731767699530595158953535165584153 (0x8195838BE5E6BFC68EE0982D4F025319)
Complete name                            : [Cleo]One_Punch_Man_-_06_(Dual Audio_10bit_BD720p).mkv
Format                                   : Matroska
Format version                           : Version 4 / Version 2
File size                                : 141 MiB
Duration                                 : 24 min 21 s
Overall bit rate                         : 810 kb/s
Movie name                               : Encoded By Cleo
Encoded date                             : UTC 2016-08-21 15:08:59
Writing application                      : mkvmerge v9.2.0 ('Photograph') 64bit
Writing library                          : libebml v1.3.3 + libmatroska v1.4.4

Video
ID                                       : 1
Format                                   : AVC
Format/Info                              : Advanced Video Codec
Format profile                           : High 10@L5.1
Format settings, CABAC                   : Yes
Format settings, ReFrames                : 16 frames
Codec ID                                 : V_MPEG4/ISO/AVC
Duration                                 : 24 min 21 s
Bit rate                                 : 636 kb/s
Width                                    : 1 280 pixels
Height                                   : 720 pixels
Display aspect ratio                     : 16:9
Frame rate mode                          : Variable
Frame rate                               : 23.976 FPS
Color space                              : YUV
Chroma subsampling                       : 4:2:0
Bit depth                                : 10 bits
Scan type                                : Progressive
Bits/(Pixel*Frame)                       : 0.029
Stream size                              : 111 MiB (78%)
Writing library                          : x264 core 142 r2479kMod dd79a61
Encoding settings                        : cabac=1 / ref=16 / deblock=1:0:0 / analyse=0x3:0x133 / me=umh / subme=10 / psy=1 / fade_compensate=0.00 / psy_rd=1.00:0.00 / mixed_ref=1 / me_range=24 / chroma_me=1 / trellis=2 / 8x8dct=1 / cqm=0 / deadzone=21,11 / fast_pskip=1 / chroma_qp_offset=-2 / threads=12 / lookahead_threads=2 / sliced_threads=0 / nr=0 / decimate=1 / interlaced=0 / bluray_compat=0 / constrained_intra=0 / fgo=0 / bframes=8 / b_pyramid=2 / b_adapt=2 / b_bias=0 / direct=3 / weightb=1 / open_gop=0 / weightp=2 / keyint=250 / keyint_min=23 / scenecut=40 / intra_refresh=0 / rc_lookahead=60 / rc=crf / mbtree=1 / crf=24.0000 / qcomp=0.60 / qpmin=0 / qpmax=81 / qpstep=4 / ip_ratio=1.40 / aq=1:1.00
Language                                 : English
Default                                  : Yes
Forced                                   : No

Audio #1
ID                                       : 2
Format                                   : AAC
Format/Info                              : Advanced Audio Codec
Format profile                           : Main
Codec ID                                 : A_AAC
Duration                                 : 24 min 21 s
Bit rate                                 : 77.3 kb/s
Channel(s)                               : 2 channels
Channel positions                        : Front: L R
Sampling rate                            : 48.0 kHz
Frame rate                               : 46.875 FPS (1024 spf)
Compression mode                         : Lossy
Stream size                              : 13.5 MiB (10%)
Language                                 : Japanese
Default                                  : No
Forced                                   : No

Audio #2
ID                                       : 3
Format                                   : AAC
Format/Info                              : Advanced Audio Codec
Format profile                           : Main
Codec ID                                 : A_AAC
Duration                                 : 24 min 20 s
Bit rate                                 : 93.3 kb/s
Channel(s)                               : 2 channels
Channel positions                        : Front: L R
Sampling rate                            : 48.0 kHz
Frame rate                               : 46.875 FPS (1024 spf)
Compression mode                         : Lossy
Stream size                              : 16.2 MiB (12%)
Language                                 : English
Default                                  : Yes
Forced                                   : No

Text
ID                                       : 4
Format                                   : ASS
Codec ID                                 : S_TEXT/ASS
Codec ID/Info                            : Advanced Sub Station Alpha
Duration                                 : 24 min 17 s
Bit rate                                 : 400 b/s
Count of elements                        : 703
Compression mode                         : Lossless
Stream size                              : 71.3 KiB (0%)
Language                                 : English
Default                                  : Yes
Forced                                   : No

Menu
00:00:00.000                             : en:Prologue
00:03:08.980                             : en:Opening
00:04:39.028                             : en:Part A
00:10:09.066                             : en:Part B
00:21:18.068                             : en:Ending
00:22:48.033                             : en:Preview

Other Files in this Torrent
[Cleo]One_Punch_Man_-_06_(Dual Audio_10bit_BD720p).mkv
beta
Anime DDL+NZB mirror
Current Time: 30/11/2021 08:12



About/FAQs

Discord