[Chihiro] Undead Girl Murder Farce 02 [1080p Hi10P AAC][09071FE6].mkv


File Size929.7 MB (974,838,284 bytes)
DownloadClickNUpload | DownloadGG | GoFile | KrakenFiles | MdiaLoad
MultiUp: Part1
  • BdUpload
  • DownAce
  • Fichier
  • FileCloud
  • Filerio
  • FilesCdn
  • IndiShare
  • Kbagi
  • Turbobit
  • UpToBox
  • Uppit
, Part2
  • BdUpload
  • DownAce
  • Fichier
  • FileCloud
  • Filerio
  • FilesCdn
  • IndiShare
  • Kbagi
  • Turbobit
  • UpToBox
  • Uppit
HashesCRC32: 09071FE6, MD5: CA4E74F566FF8FAAA010ACA4D0879B12, SHA1: 86B755BD6803817ABD9748E27076457652D267FF, SHA256: FE3470381653BEFE4DF9EF8D5CA3A6C75EB7011BCDF31E39BB6603F741893ECD, ED2K: 5BC3C078885E24A0B517C683B9A1FE00
Screenshots
screenshotscreenshotscreenshotscreenshotscreenshot
SubtitlesAll Attachments | English [eng, ASS]
Additional Info
General
Unique ID                                : 317961171758664769730326410349712653274 (0xEF35181C7572C49EA0787FAC2B6A3BDA)
Complete name                            : [Chihiro] Undead Girl Murder Farce 02 [1080p Hi10P AAC][09071FE6].mkv
Format                                   : Matroska
Format version                           : Version 4
File size                                : 930 MiB
Duration                                 : 22 min 50 s
Overall bit rate                         : 5 692 kb/s
Movie name                               : Undead Girl Murder Farce 02
Encoded date                             : UTC 2023-08-12 23:20:25
Writing application                      : mkvmerge v73.0.0 ('25 or 6 to 4') 64-bit
Writing library                          : libebml v1.4.4 + libmatroska v1.7.1
Attachments                              : Barmeno-Medium.ttf / Bitstream Arrus Black BT.ttf / DCC-SharpDistressBlack.otf / DFGRyuSekiSekaii-Kami.otf / Lindonna.otf / Lusitana-Bold.ttf / saira-condensed.semibold.ttf / Vesta-Bold.ttf

Video
ID                                       : 1
Format                                   : AVC
Format/Info                              : Advanced Video Codec
Format profile                           : High 10@L5
Format settings                          : CABAC / 5 Ref Frames
Format settings, CABAC                   : Yes
Format settings, Reference frames        : 5 frames
Codec ID                                 : V_MPEG4/ISO/AVC
Duration                                 : 22 min 50 s
Bit rate                                 : 5 550 kb/s
Width                                    : 1 920 pixels
Height                                   : 1 080 pixels
Display aspect ratio                     : 16:9
Frame rate mode                          : Constant
Frame rate                               : 23.976 (24000/1001) FPS
Color space                              : YUV
Chroma subsampling                       : 4:2:0
Bit depth                                : 10 bits
Scan type                                : Progressive
Bits/(Pixel*Frame)                       : 0.112
Stream size                              : 906 MiB (97%)
Title                                    : Undead Girl Murder Farce 02
Writing library                          : x264 core 160 r3000 33f9e14
Encoding settings                        : cabac=1 / ref=5 / deblock=1:-2:-2 / analyse=0x3:0x133 / me=umh / subme=10 / psy=1 / psy_rd=0.80:0.00 / mixed_ref=1 / me_range=24 / chroma_me=1 / trellis=2 / 8x8dct=1 / cqm=0 / deadzone=21,11 / fast_pskip=1 / chroma_qp_offset=-2 / threads=34 / lookahead_threads=5 / sliced_threads=0 / nr=0 / decimate=1 / interlaced=0 / bluray_compat=0 / constrained_intra=0 / bframes=8 / b_pyramid=2 / b_adapt=2 / b_bias=0 / direct=3 / weightb=1 / open_gop=0 / weightp=2 / keyint=250 / keyint_min=23 / scenecut=40 / intra_refresh=0 / rc=crf / mbtree=0 / crf=15.0 / qcomp=0.80 / qpmin=0 / qpmax=81 / qpstep=4 / ip_ratio=1.40 / pb_ratio=1.30 / aq=3:0.70
Default                                  : Yes
Forced                                   : No
Color range                              : Limited
Matrix coefficients                      : BT.709

Audio
ID                                       : 2
Format                                   : AAC LC
Format/Info                              : Advanced Audio Codec Low Complexity
Codec ID                                 : A_AAC-2
Duration                                 : 22 min 50 s
Bit rate                                 : 128 kb/s
Channel(s)                               : 2 channels
Channel layout                           : L R
Sampling rate                            : 44.1 kHz
Frame rate                               : 43.066 FPS (1024 SPF)
Compression mode                         : Lossy
Stream size                              : 20.9 MiB (2%)
Title                                    : 2.0 AAC
Language                                 : Japanese
Default                                  : Yes
Forced                                   : No

Text
ID                                       : 3
Format                                   : ASS
Codec ID                                 : S_TEXT/ASS
Codec ID/Info                            : Advanced Sub Station Alpha
Duration                                 : 22 min 32 s
Bit rate                                 : 4 740 b/s
Count of elements                        : 8222
Compression mode                         : Lossless
Stream size                              : 783 KiB (0%)
Title                                    : English
Language                                 : English
Default                                  : Yes
Forced                                   : No

Menu
00:00:00.000                             : :Prologue
00:03:48.019                             : :Opening
00:05:17.984                             : :Undead Girl Murder Farce 02
00:21:09.977                             : :Ending
00:22:39.984                             : :Epilogue
beta
Anime DDL+NZB mirror
Current Time: 14/06/2024 19:19



About/FAQs

Discord