File Size351.2 MB (368,216,114 bytes)
DownloadAnonFiles | ClickNUpload | DownloadGG | KrakenFiles | MultiUp
  • BdUpload
  • DownAce
  • Fichier
  • FileCloud
  • Filerio
  • FilesCdn
  • IndiShare
  • Kbagi
  • Turbobit
  • UpToBox
  • Uppit
| ZippyShare
HashesCRC32: 37DA3D37, MD5: C953C9B950084601B65677C24AB9CFBA, SHA1: EEFA7DCB25DCA50223EE90D3EF81D15C32D980AC, SHA256: 2FAA0C06C5DEC89A02B9317C63014A6DD773D602601CED5DAE8FD7BB9DD30F84, ED2K: D49657DA1617EE1EB1DC8BA0BBCFE0F6
Screenshots
screenshotscreenshotscreenshotscreenshotscreenshot
SubtitlesAll Attachments | English [eng, ASS]
Additional Info
General
Unique ID                                : 206746688368922286732141004261093030598 (0x9B89F6BBCF7B0F2CAEE2965590F43AC6)
Complete name                            : [Chihiro] Hataraku Maou-sama!! 09 [1080p Hi10P AAC][37DA3D37].mkv
Format                                   : Matroska
Format version                           : Version 4
File size                                : 351 MiB
Duration                                 : 23 min 40 s
Overall bit rate                         : 2 074 kb/s
Movie name                               : Hataraku Maou-sama!! 09
Encoded date                             : UTC 2022-09-15 08:27:31
Writing application                      : mkvmerge v68.0.0 ('The Curtain') 64-bit
Writing library                          : libebml v1.4.2 + libmatroska v1.6.4
Attachments                              : Alphakind.ttf / Asul (Bold).ttf / BellGothicStd-Black.otf / hapole_pencil.ttf / NozakiDialogue-Bold.otf / NozakiDialogue-BoldItalic.otf / Orion Chalk Scratch Demo Version.ttf / Raleway-Medium.ttf / Roboto Light.ttf

Video
ID                                       : 1
Format                                   : AVC
Format/Info                              : Advanced Video Codec
Format profile                           : High 10@L5.1
Format settings                          : CABAC / 16 Ref Frames
Format settings, CABAC                   : Yes
Format settings, Reference frames        : 16 frames
Codec ID                                 : V_MPEG4/ISO/AVC
Duration                                 : 23 min 40 s
Bit rate                                 : 1 904 kb/s
Width                                    : 1 920 pixels
Height                                   : 1 080 pixels
Display aspect ratio                     : 16:9
Frame rate mode                          : Constant
Frame rate                               : 23.976 (24000/1001) FPS
Color space                              : YUV
Chroma subsampling                       : 4:2:0
Bit depth                                : 10 bits
Scan type                                : Progressive
Bits/(Pixel*Frame)                       : 0.038
Stream size                              : 322 MiB (92%)
Title                                    : Hataraku Maou-sama!! 09
Writing library                          : x264 core 164 r3081 19856cc
Encoding settings                        : cabac=1 / ref=16 / deblock=1:-2:-1 / analyse=0x3:0x133 / me=umh / subme=10 / psy=1 / psy_rd=0.70:0.00 / mixed_ref=1 / me_range=48 / chroma_me=1 / trellis=2 / 8x8dct=1 / cqm=0 / deadzone=21,11 / fast_pskip=0 / chroma_qp_offset=-2 / threads=4 / lookahead_threads=1 / sliced_threads=0 / nr=0 / decimate=0 / interlaced=0 / bluray_compat=0 / stitchable=1 / constrained_intra=0 / bframes=8 / b_pyramid=2 / b_adapt=2 / b_bias=0 / direct=3 / weightb=1 / open_gop=0 / weightp=2 / keyint=infinite / keyint_min=1 / scenecut=0 / intra_refresh=0 / rc_lookahead=96 / rc=crf / mbtree=1 / crf=16.0 / qcomp=0.65 / qpmin=0 / qpmax=81 / qpstep=4 / ip_ratio=1.30 / aq=3:0.70
Default                                  : No
Forced                                   : No
Color range                              : Limited
Color primaries                          : BT.709
Transfer characteristics                 : BT.709
Matrix coefficients                      : BT.709

Audio
ID                                       : 2
Format                                   : AAC LC
Format/Info                              : Advanced Audio Codec Low Complexity
Codec ID                                 : A_AAC-2
Duration                                 : 23 min 40 s
Bit rate                                 : 128 kb/s
Channel(s)                               : 2 channels
Channel layout                           : L R
Sampling rate                            : 44.1 kHz
Frame rate                               : 43.066 FPS (1024 SPF)
Compression mode                         : Lossy
Stream size                              : 21.7 MiB (6%)
Title                                    : 2.0 AAC
Language                                 : Japanese
Default                                  : Yes
Forced                                   : No

Text
ID                                       : 3
Format                                   : ASS
Codec ID                                 : S_TEXT/ASS
Codec ID/Info                            : Advanced Sub Station Alpha
Duration                                 : 23 min 26 s
Bit rate                                 : 26.5 kb/s
Count of elements                        : 20603
Compression mode                         : Lossless
Stream size                              : 4.44 MiB (1%)
Title                                    : English
Language                                 : English
Default                                  : Yes
Forced                                   : No

Menu
00:00:00.000                             : :Prologue
00:01:29.006                             : :Opening
00:02:59.054                             : :Hataraku Maou-sama!! 09
00:20:29.353                             : :Ending
00:21:59.318                             : :Epilogue
beta
Anime DDL+NZB mirror
Current Time: 24/06/2024 12:12



About/FAQs

Discord