File Size79.56 MB (83,425,142 bytes)
DownloadClickNUpload | Go4Up | Jheberg | MultiUp | OpenLoad | Sendspace | SolidFiles | Upfile.mobi
HashesCRC32: 70CE16D8, MD5: 3A9042BBDA4E62F106E1C9E853B69C0F, SHA1: B64C022E9A9FBF811A8339000FB78DE7F2460EE5, SHA256: 334333A64338A7EEAC29588BC35F8C5F913CB5F4182C7A6C47CE3FEB078D7E3F, ED2K: C4C42D16A4812095CAB2A4F2CF8303DC
Screenshots
screenshotscreenshotscreenshotscreenshotscreenshot
SubtitlesAll Attachments | English [eng, ASS]
Additional Info
General
Unique ID                                : 226059192718232382087378833656753069114 (0xAA116AB66B766525A2C780CED1769C3A)
Complete name                            : [Cleo]Koimonogatari_-_05_(10bit_BD720p_x265).mkv
Format                                   : Matroska
Format version                           : Version 4 / Version 2
File size                                : 79.6 MiB
Duration                                 : 21 min 58 s
Overall bit rate                         : 506 kb/s
Movie name                               : Koimonogatari 05
Encoded date                             : UTC 2017-06-09 09:06:19
Writing application                      : mkvmerge v12.0.0 ('Trust / Lust') 64bit
Writing library                          : libebml v1.3.4 + libmatroska v1.4.5
Attachments                              : ARIALUNI.TTF / CENTURY.TTF / CTMERCURIUSSTD-MEDIUM.OTF / IwaOMinPro-Bd-Fate_5.ttf / LHF_Scriptana.ttf / MyriadPro-Regular_0.otf / RotisWTF.ttf

Video
ID                                       : 1
Format                                   : HEVC
Format/Info                              : High Efficiency Video Coding
Format profile                           : Main 10@L3.1@Main
Codec ID                                 : V_MPEGH/ISO/HEVC
Duration                                 : 21 min 58 s
Bit rate                                 : 259 kb/s
Width                                    : 1 280 pixels
Height                                   : 720 pixels
Display aspect ratio                     : 16:9
Frame rate mode                          : Constant
Frame rate                               : 23.976 (24000/1001) FPS
Color space                              : YUV
Chroma subsampling                       : 4:2:0
Bit depth                                : 10 bits
Bits/(Pixel*Frame)                       : 0.012
Stream size                              : 40.7 MiB (51%)
Writing library                          : x265 2.4+14-bc0e9bd7c08f5ddc:[Windows][GCC 6.3.0][64 bit] 10bit: KG7x [x265.ru]
Encoding settings                        : cpuid=1050111 / frame-threads=6 / numa-pools=16,16 / wpp / no-pmode / no-pme / no-psnr / no-ssim / log-level=2 / input-csp=1 / input-res=1280x720 / interlace=0 / total-frames=31604 / level-idc=0 / high-tier=1 / uhd-bd=0 / ref=3 / no-allow-non-conformance / no-repeat-headers / annexb / no-aud / no-hrd / info / hash=0 / no-temporal-layers / open-gop / min-keyint=23 / keyint=250 / bframes=4 / b-adapt=2 / b-pyramid / bframe-bias=0 / rc-lookahead=20 / lookahead-slices=4 / scenecut=40 / no-intra-refresh / ctu=64 / min-cu-size=8 / no-rect / no-amp / max-tu-size=32 / tu-inter-depth=1 / tu-intra-depth=1 / limit-tu=0 / rdoq-level=0 / dynamic-rd=0.00 / no-ssim-rd / signhide / no-tskip / nr-intra=0 / nr-inter=0 / no-constrained-intra / strong-intra-smoothing / max-merge=2 / limit-refs=3 / no-limit-modes / me=1 / subme=2 / merange=57 / temporal-mvp / weightp / no-weightb / no-analyze-src-pics / deblock=0:0 / sao / no-sao-non-deblock / rd=3 / no-early-skip / rskip / no-fast-intra / no-tskip-fast / no-cu-lossless / no-b-intra / rdpenalty=0 / psy-rd=2.00 / psy-rdoq=0.00 / no-rd-refine / analysis-mode=0 / no-lossless / cbqpoffs=0 / crqpoffs=0 / rc=crf / crf=22.0 / qcomp=0.60 / qpstep=4 / stats-write=0 / stats-read=0 / ipratio=1.40 / pbratio=1.30 / aq-mode=1 / aq-strength=1.00 / cutree / zone-count=0 / no-strict-cbr / qg-size=32 / no-rc-grain / qpmax=69 / qpmin=0 / sar=1 / overscan=0 / videoformat=5 / range=0 / colorprim=2 / transfer=2 / colormatrix=2 / chromaloc=0 / display-window=0 / max-cll=0,0 / min-luma=0 / max-luma=1023 / log2-max-poc-lsb=8 / vui-timing-info / vui-hrd-info / slices=1 / opt-qp-pps / opt-ref-list-length-pps / no-multi-pass-opt-rps / scenecut-bias=0.05 / no-opt-cu-delta-qp / no-aq-motion / no-hdr / no-hdr-opt / no-dhdr10-opt / refine-level=5 / no-limit-sao / ctu-info=0
Language                                 : Japanese
Default                                  : Yes
Forced                                   : No

Audio
ID                                       : 2
Format                                   : AAC
Format/Info                              : Advanced Audio Codec
Format profile                           : LC
Codec ID                                 : A_AAC
Duration                                 : 21 min 58 s
Bit rate                                 : 96.0 kb/s
Channel(s)                               : 2 channels
Channel positions                        : Front: L R
Sampling rate                            : 48.0 kHz
Frame rate                               : 46.875 FPS (1024 spf)
Compression mode                         : Lossy
Delay relative to video                  : 9 ms
Stream size                              : 15.0 MiB (19%)
Language                                 : Japanese
Default                                  : Yes
Forced                                   : No

Text
ID                                       : 3
Format                                   : ASS
Codec ID                                 : S_TEXT/ASS
Codec ID/Info                            : Advanced Sub Station Alpha
Duration                                 : 21 min 58 s
Bit rate                                 : 937 b/s
Count of elements                        : 1682
Compression mode                         : Lossless
Stream size                              : 151 KiB (0%)
Title                                    : English
Language                                 : English
Default                                  : Yes
Forced                                   : No

Menu
00:00:00.000                             : en:Prologue / en:Opening / :Ending
00:05:54.019                             : en:Koimonogatari 05
00:21:10.099                             : :Preview

Other Files in this Torrent
Arc 05 Koimonogatari/[Cleo]Koimonogatari_-_05_(10bit_BD720p_x265).mkv
beta
Anime DDL+NZB mirror
Current Time: 18/06/2024 16:17



About/FAQs

Discord