File Size105.8 MB (110,922,257 bytes)
DownloadGo4Up | Jheberg | MultiUp | OpenLoad | Sendspace | SolidFiles | UsersCloud
HashesCRC32: 5A230AB9, MD5: 7C6270CD46A5C49CD6DC5386793B6901, SHA1: 45257AA5430C8581D74FCBAC4120369C1E1D7E78, SHA256: EDB4391342F760E3BE5CBAFD18FF0DDA90BF9959A33911D6DFD0C6B820CA53BB, ED2K: 5205CCA9C53A684CEE3B4F58C2FF4D3A
Screenshots
screenshotscreenshotscreenshotscreenshotscreenshot
SubtitlesAll Attachments | English (Signs / Songs) [eng, ASS], English (Full) [eng, ASS]
Additional Info
General
Unique ID                                : 249883417847360694331706405981669465068 (0xBBFDCBB33E9FFCBE95B1B58098AA9BEC)
Complete name                            : [AnimeRG] Tokyo Ghoul - 03 [720p] [x265] [pseudo].mkv
Format                                   : Matroska
Format version                           : Version 4 / Version 2
File size                                : 106 MiB
Duration                                 : 24 min 2 s
Overall bit rate                         : 615 kb/s
Movie name                               : Dove
Encoded date                             : UTC 2017-03-17 13:54:48
Writing application                      : mkvmerge v9.2.0 ('Photograph') 64bit
Writing library                          : libebml v1.3.3 + libmatroska v1.4.4
Attachments                              : ALEX_.ttf / Angie-Bold.ttf / CLEARGL.ttf / cv pixelado.ttf / huxtable.ttf / HWYGOTH.ttf

Video
ID                                       : 1
Format                                   : HEVC
Format/Info                              : High Efficiency Video Coding
Format profile                           : Main@L5@Main
Codec ID                                 : V_MPEGH/ISO/HEVC
Duration                                 : 24 min 0 s
Bit rate                                 : 415 kb/s
Width                                    : 960 pixels
Height                                   : 720 pixels
Display aspect ratio                     : 16:9
Frame rate mode                          : Constant
Frame rate                               : 23.976 (24000/1001) FPS
Standard                                 : NTSC
Color space                              : YUV
Chroma subsampling                       : 4:2:0
Bit depth                                : 8 bits
Bits/(Pixel*Frame)                       : 0.025
Stream size                              : 71.2 MiB (67%)
Writing library                          : x265 2.0+2-70581d6cd065:[Windows][MSVC 1900][64 bit] 8bit
Encoding settings                        : wpp / ctu=64 / min-cu-size=8 / max-tu-size=32 / tu-intra-depth=1 / tu-inter-depth=1 / me=3 / subme=5 / merange=22 / no-rect / no-amp / max-merge=2 / temporal-mvp / no-early-skip / rskip / rdpenalty=0 / no-tskip / no-tskip-fast / strong-intra-smoothing / no-lossless / no-cu-lossless / no-constrained-intra / no-fast-intra / open-gop / no-temporal-layers / interlace=0 / keyint=240 / min-keyint=23 / scenecut=40 / rc-lookahead=240 / lookahead-slices=0 / bframes=16 / bframe-bias=0 / b-adapt=2 / ref=5 / limit-refs=3 / no-limit-modes / weightp / weightb / aq-mode=2 / qg-size=64 / aq-strength=1.00 / cbqpoffs=0 / crqpoffs=0 / rd=3 / psy-rd=2.00 / rdoq-level=0 / psy-rdoq=0.00 / no-rd-refine / signhide / deblock=1:1 / sao / no-sao-non-deblock / b-pyramid / cutree / no-intra-refresh / rc=crf / crf=25.0 / qcomp=0.60 / qpmin=0 / qpmax=51 / qpstep=4 / vbv-maxrate=3000 / vbv-bufsize=1500 / crf-max=32.0 / ipratio=1.40 / pbratio=1.30
Default                                  : Yes
Forced                                   : No
Color range                              : Limited
Color primaries                          : BT.709
Transfer characteristics                 : BT.709
Matrix coefficients                      : BT.709

Audio #1
ID                                       : 4
Format                                   : AAC
Format/Info                              : Advanced Audio Codec
Format profile                           : LC
Codec ID                                 : A_AAC
Duration                                 : 23 min 59 s
Bit rate                                 : 90.4 kb/s
Channel(s)                               : 2 channels
Channel positions                        : Front: L R
Sampling rate                            : 48.0 kHz
Frame rate                               : 46.875 FPS (1024 spf)
Compression mode                         : Lossy
Delay relative to video                  : 20 ms
Stream size                              : 15.5 MiB (15%)
Title                                    : English Stereo
Language                                 : English
Default                                  : Yes
Forced                                   : No

Audio #2
ID                                       : 5
Format                                   : AAC
Format/Info                              : Advanced Audio Codec
Format profile                           : LC
Codec ID                                 : A_AAC
Duration                                 : 24 min 0 s
Bit rate                                 : 96.0 kb/s
Channel(s)                               : 2 channels
Channel positions                        : Front: L R
Sampling rate                            : 48.0 kHz
Frame rate                               : 46.875 FPS (1024 spf)
Compression mode                         : Lossy
Delay relative to video                  : 20 ms
Stream size                              : 16.4 MiB (16%)
Title                                    : Japanese Stereo
Language                                 : Japanese
Default                                  : No
Forced                                   : No

Text #1
ID                                       : 2
Format                                   : ASS
Codec ID                                 : S_TEXT/ASS
Codec ID/Info                            : Advanced Sub Station Alpha
Duration                                 : 23 min 42 s
Bit rate                                 : 4 976 b/s
Count of elements                        : 534
Compression mode                         : Lossless
Stream size                              : 864 KiB (1%)
Title                                    : English (Signs / Songs)
Language                                 : English
Default                                  : Yes
Forced                                   : No

Text #2
ID                                       : 3
Format                                   : ASS
Codec ID                                 : S_TEXT/ASS
Codec ID/Info                            : Advanced Sub Station Alpha
Duration                                 : 24 min 2 s
Bit rate                                 : 5 033 b/s
Count of elements                        : 950
Compression mode                         : Lossless
Stream size                              : 886 KiB (1%)
Title                                    : English (Full)
Language                                 : English
Default                                  : No
Forced                                   : No

Menu
00:00:00.000                             : en:Prologue
00:00:40.010                             : en:Opening
00:02:10.980                             : en:Part 1
00:11:54.980                             : en:Part 2
00:22:00.630                             : en:Ending
00:23:29.970                             : en:Preview

Other Files in this Torrent
[AnimeRG] Tokyo Ghoul - 03 [720p] [x265] [pseudo].mkv
beta
Anime DDL+NZB mirror
Current Time: 27/11/2021 17:09



About/FAQs

Discord