File Size94.42 MB (99,008,342 bytes)
DownloadGo4Up | Jheberg | MultiUp | OpenLoad | Sendspace | SolidFiles | UsersCloud
HashesCRC32: 660F1FF9, MD5: 8026E296AA3E1D12903AE9DA73427073, SHA1: 43CADC9E82E4353D19F2387486E4999C8B0BDAF3, SHA256: 4BA5E3EA05FD4C22477AC5B622BA98E60E9770E5971C31190FC08A8F06C8C131, ED2K: F2BB221E793E2E5C240784D94CC802A0
Screenshots
screenshotscreenshotscreenshotscreenshotscreenshot
SubtitlesAll Attachments | English (Signs / Songs) [eng, ASS], English (Full) [eng, ASS]
Additional Info
General
Unique ID                                : 242455076945538439292017085087843258228 (0xB66726379851F1C0BA85EFB1744A8F74)
Complete name                            : [AnimeRG] Tokyo Ghoul - 09 [720p] [x265] [pseudo].mkv
Format                                   : Matroska
Format version                           : Version 4 / Version 2
File size                                : 94.4 MiB
Duration                                 : 24 min 6 s
Overall bit rate                         : 548 kb/s
Movie name                               : Birdcage
Encoded date                             : UTC 2017-03-17 13:55:01
Writing application                      : mkvmerge v9.2.0 ('Photograph') 64bit
Writing library                          : libebml v1.3.3 + libmatroska v1.4.4
Attachments                              : ALEX_.ttf / Angie-Bold.ttf / arial_0.ttf / ariblk.ttf / bluehighv2.ttf / CLEARGL.ttf / huxtable.ttf

Video
ID                                       : 1
Format                                   : HEVC
Format/Info                              : High Efficiency Video Coding
Format profile                           : Main@L5@Main
Codec ID                                 : V_MPEGH/ISO/HEVC
Duration                                 : 24 min 5 s
Bit rate                                 : 333 kb/s
Width                                    : 960 pixels
Height                                   : 720 pixels
Display aspect ratio                     : 16:9
Frame rate mode                          : Constant
Frame rate                               : 23.976 (24000/1001) FPS
Standard                                 : NTSC
Color space                              : YUV
Chroma subsampling                       : 4:2:0
Bit depth                                : 8 bits
Bits/(Pixel*Frame)                       : 0.020
Stream size                              : 57.3 MiB (61%)
Writing library                          : x265 2.0+2-70581d6cd065:[Windows][MSVC 1900][64 bit] 8bit
Encoding settings                        : wpp / ctu=64 / min-cu-size=8 / max-tu-size=32 / tu-intra-depth=1 / tu-inter-depth=1 / me=3 / subme=5 / merange=22 / no-rect / no-amp / max-merge=2 / temporal-mvp / no-early-skip / rskip / rdpenalty=0 / no-tskip / no-tskip-fast / strong-intra-smoothing / no-lossless / no-cu-lossless / no-constrained-intra / no-fast-intra / open-gop / no-temporal-layers / interlace=0 / keyint=240 / min-keyint=23 / scenecut=40 / rc-lookahead=240 / lookahead-slices=0 / bframes=16 / bframe-bias=0 / b-adapt=2 / ref=5 / limit-refs=3 / no-limit-modes / weightp / weightb / aq-mode=2 / qg-size=64 / aq-strength=1.00 / cbqpoffs=0 / crqpoffs=0 / rd=3 / psy-rd=2.00 / rdoq-level=0 / psy-rdoq=0.00 / no-rd-refine / signhide / deblock=1:1 / sao / no-sao-non-deblock / b-pyramid / cutree / no-intra-refresh / rc=crf / crf=25.0 / qcomp=0.60 / qpmin=0 / qpmax=51 / qpstep=4 / vbv-maxrate=3000 / vbv-bufsize=1500 / crf-max=32.0 / ipratio=1.40 / pbratio=1.30
Default                                  : Yes
Forced                                   : No
Color range                              : Limited
Color primaries                          : BT.709
Transfer characteristics                 : BT.709
Matrix coefficients                      : BT.709

Audio #1
ID                                       : 4
Format                                   : AAC
Format/Info                              : Advanced Audio Codec
Format profile                           : LC
Codec ID                                 : A_AAC
Duration                                 : 24 min 5 s
Bit rate                                 : 92.6 kb/s
Channel(s)                               : 2 channels
Channel positions                        : Front: L R
Sampling rate                            : 48.0 kHz
Frame rate                               : 46.875 FPS (1024 spf)
Compression mode                         : Lossy
Delay relative to video                  : 20 ms
Stream size                              : 16.0 MiB (17%)
Title                                    : English Stereo
Language                                 : English
Default                                  : Yes
Forced                                   : No

Audio #2
ID                                       : 5
Format                                   : AAC
Format/Info                              : Advanced Audio Codec
Format profile                           : LC
Codec ID                                 : A_AAC
Duration                                 : 24 min 5 s
Bit rate                                 : 96.0 kb/s
Channel(s)                               : 2 channels
Channel positions                        : Front: L R
Sampling rate                            : 48.0 kHz
Frame rate                               : 46.875 FPS (1024 spf)
Compression mode                         : Lossy
Delay relative to video                  : 20 ms
Stream size                              : 16.8 MiB (18%)
Title                                    : Japanese Stereo
Language                                 : Japanese
Default                                  : No
Forced                                   : No

Text #1
ID                                       : 2
Format                                   : ASS
Codec ID                                 : S_TEXT/ASS
Codec ID/Info                            : Advanced Sub Station Alpha
Duration                                 : 18 min 12 s
Bit rate                                 : 8 792 b/s
Count of elements                        : 2292
Compression mode                         : Lossless
Stream size                              : 1.14 MiB (1%)
Title                                    : English (Signs / Songs)
Language                                 : English
Default                                  : Yes
Forced                                   : No

Text #2
ID                                       : 3
Format                                   : ASS
Codec ID                                 : S_TEXT/ASS
Codec ID/Info                            : Advanced Sub Station Alpha
Duration                                 : 24 min 5 s
Bit rate                                 : 6 760 b/s
Count of elements                        : 2644
Compression mode                         : Lossless
Stream size                              : 1.16 MiB (1%)
Title                                    : English (Full)
Language                                 : English
Default                                  : No
Forced                                   : No

Menu
00:00:00.000                             : en:Prologue
00:06:15.930                             : en:Opening
00:07:45.980                             : en:Part 1
00:13:51.970                             : en:Part 2
00:22:05.010                             : en:Ending
00:23:34.970                             : en:Preview

Other Files in this Torrent
[AnimeRG] Tokyo Ghoul - 09 [720p] [x265] [pseudo].mkv
beta
Anime DDL+NZB mirror
Current Time: 30/11/2021 08:38



About/FAQs

Discord