[AnimeRG] Mobile Suit Gundam (1988 Movie) Char's Counterattack [1080p] [Dual-Audio] [BD] [Multi-Sub] [HEVC] [x265] [pseudo].mkv


File Size3.265 GB (3,505,811,962 bytes)
DownloadClickNUpload: Part1, Part2, Part3, Part4
Jheberg: Part1, Part2
  • 1Fichier
  • FileCloud
  • Free
  • Jeodrive
  • Openload
  • Rockfile
  • Turbobit
  • Tusfiles
  • UpToBox
  • UploadedTo
, Part3
  • 1Fichier
  • FileCloud
  • Free
  • Jeodrive
  • Openload
  • Rockfile
  • Turbobit
  • Tusfiles
  • UpToBox
  • UploadedTo
, Part4
  • 1Fichier
  • FileCloud
  • Free
  • Jeodrive
  • Openload
  • Rockfile
  • Turbobit
  • Tusfiles
  • UpToBox
  • UploadedTo

MultiUp: Part1, Part2, Part3, Part4
OpenLoad: Part1, Part2, Part3, Part4
Sendspace: Part1, Part2, Part3, Part4, Part5, Part6, Part7, Part8, Part9, Part10, Part11, Part12
SolidFiles: Part1, Part2, Part3, Part4, Part5, Part6, Part7
ZippyShare: Part1, Part2, Part3, Part4, Part5, Part6, Part7
HashesCRC32: 3B3EEA83, MD5: EEB12BC987D094E9DE0051621EC5FECE, SHA1: EA7F53A56B508BA984CDEF4690A204605F0E26D4, SHA256: D4E594C1E08C1EFEDAFC5D91E3EC594A0296C27015FE846703F30A0183662CE5, ED2K: 32A513EBFD444CD57C1941062E88301F
Screenshots
screenshotscreenshotscreenshotscreenshotscreenshot
SubtitlesAll Attachments | English (Full) [eng, ASS], Japanese (Full) [jpn, PGS], Spanish (Full) [spa, ASS]
Additional Info
General
Unique ID                                : 193619615268089312746550054629811440006 (0x91A9C80F80BBAADCA9DF78D036604986)
Complete name                            : [AnimeRG] Mobile Suit Gundam (1988 Movie) Char's Counterattack [1080p] [Dual-Audio] [BD] [Multi-Sub] [HEVC] [x265] [pseudo].mkv
Format                                   : Matroska
Format version                           : Version 4 / Version 2
File size                                : 3.27 GiB
Duration                                 : 1 h 59 min
Overall bit rate                         : 3 899 kb/s
Encoded date                             : UTC 2018-11-27 06:40:47
Writing application                      : mkvmerge v9.2.0 ('Photograph') 64bit
Writing library                          : libebml v1.3.3 + libmatroska v1.4.4
Attachments                              : seguisb.ttf

Video
ID                                       : 1
Format                                   : HEVC
Format/Info                              : High Efficiency Video Coding
Format profile                           : Main@L5.1@Main
Codec ID                                 : V_MPEGH/ISO/HEVC
Duration                                 : 1 h 59 min
Bit rate                                 : 3 696 kb/s
Width                                    : 1 920 pixels
Height                                   : 1 080 pixels
Display aspect ratio                     : 16:9
Frame rate mode                          : Constant
Frame rate                               : 23.976 (24000/1001) FPS
Standard                                 : NTSC
Color space                              : YUV
Chroma subsampling                       : 4:2:0
Bit depth                                : 8 bits
Bits/(Pixel*Frame)                       : 0.074
Stream size                              : 3.09 GiB (95%)
Writing library                          : x265 2.5+14-2718cb5dd67f:[Windows][GCC 7.1.0][64 bit] 8bit+10bit+12bit
Encoding settings                        : cpuid=1173503 / frame-threads=2 / numa-pools=+ / wpp / pmode / no-pme / no-psnr / no-ssim / log-level=2 / input-csp=1 / input-res=1920x1080 / interlace=0 / total-frames=172464 / level-idc=51 / high-tier=1 / uhd-bd=0 / ref=3 / no-allow-non-conformance / no-repeat-headers / annexb / no-aud / no-hrd / info / hash=0 / no-temporal-layers / open-gop / min-keyint=23 / keyint=250 / bframes=4 / b-adapt=2 / b-pyramid / bframe-bias=0 / rc-lookahead=250 / lookahead-slices=6 / scenecut=40 / no-intra-refresh / ctu=64 / min-cu-size=8 / no-rect / no-amp / max-tu-size=32 / tu-inter-depth=1 / tu-intra-depth=1 / limit-tu=0 / rdoq-level=0 / dynamic-rd=0.00 / no-ssim-rd / signhide / no-tskip / nr-intra=0 / nr-inter=0 / no-constrained-intra / strong-intra-smoothing / max-merge=2 / limit-refs=0 / no-limit-modes / me=3 / subme=2 / merange=57 / temporal-mvp / weightp / no-weightb / no-analyze-src-pics / deblock=0:0 / sao / no-sao-non-deblock / rd=3 / no-early-skip / rskip / no-fast-intra / no-tskip-fast / no-cu-lossless / no-b-intra / no-splitrd-skip / rdpenalty=0 / psy-rd=2.00 / psy-rdoq=0.00 / no-rd-refine / analysis-reuse-mode=0 / no-lossless / cbqpoffs=0 / crqpoffs=0 / rc=crf / crf=20.0 / qcomp=0.60 / qpstep=4 / stats-write=0 / stats-read=0 / vbv-maxrate=5000 / vbv-bufsize=5000 / vbv-init=0.9 / crf-max=28.0 / crf-min=12.0 / ipratio=1.40 / pbratio=1.30 / aq-mode=2 / aq-strength=1.00 / cutree / zone-count=0 / no-strict-cbr / qg-size=32 / no-rc-grain / qpmax=50 / qpmin=0 / no-const-vbv / sar=0 / overscan=0 / videoformat=2 / range=1 / colorprim=4 / transfer=1 / colormatrix=1 / chromaloc=0 / display-window=0 / max-cll=0,0 / min-luma=0 / max-luma=255 / log2-max-poc-lsb=8 / vui-timing-info / vui-hrd-info / slices=1 / opt-qp-pps / opt-ref-list-length-pps / no-multi-pass-opt-rps / scenecut-bias=0.05 / no-opt-cu-delta-qp / no-aq-motion / no-hdr / no-hdr-opt / no-dhdr10-opt / analysis-reuse-level=5 / scale-factor=0 / refine-intra=0 / refine-inter=0 / refine-mv=0 / no-limit-sao / ctu-info=0
Default                                  : Yes
Forced                                   : No
Color range                              : Full
Color primaries                          : BT.470 System M
Transfer characteristics                 : BT.709
Matrix coefficients                      : BT.709

Audio #1
ID                                       : 2
Format                                   : AAC
Format/Info                              : Advanced Audio Codec
Format profile                           : LC
Codec ID                                 : A_AAC
Duration                                 : 1 h 59 min
Bit rate                                 : 86.1 kb/s
Channel(s)                               : 2 channels
Channel positions                        : Front: L R
Sampling rate                            : 48.0 kHz
Frame rate                               : 46.875 FPS (1024 spf)
Compression mode                         : Lossy
Delay relative to video                  : 20 ms
Stream size                              : 73.9 MiB (2%)
Title                                    : English Stereo
Language                                 : English
Default                                  : Yes
Forced                                   : No

Audio #2
ID                                       : 3
Format                                   : AAC
Format/Info                              : Advanced Audio Codec
Format profile                           : LC
Codec ID                                 : A_AAC
Duration                                 : 1 h 59 min
Bit rate                                 : 96.0 kb/s
Channel(s)                               : 2 channels
Channel positions                        : Front: L R
Sampling rate                            : 48.0 kHz
Frame rate                               : 46.875 FPS (1024 spf)
Compression mode                         : Lossy
Delay relative to video                  : 20 ms
Stream size                              : 82.7 MiB (2%)
Title                                    : Japanese Stereo
Language                                 : Japanese
Default                                  : No
Forced                                   : No

Text #1
ID                                       : 4
Format                                   : ASS
Codec ID                                 : S_TEXT/ASS
Codec ID/Info                            : Advanced Sub Station Alpha
Duration                                 : 1 h 58 min
Bit rate                                 : 130 b/s
Count of elements                        : 1952
Compression mode                         : Lossless
Stream size                              : 114 KiB (0%)
Title                                    : English (Full)
Language                                 : English
Default                                  : No
Forced                                   : No

Text #2
ID                                       : 5
Format                                   : PGS
Muxing mode                              : zlib
Codec ID                                 : S_HDMV/PGS
Codec ID/Info                            : Picture based subtitle format used on BDs/HD-DVDs
Duration                                 : 1 h 54 min
Bit rate                                 : 16.9 kb/s
Count of elements                        : 3622
Stream size                              : 13.9 MiB (0%)
Title                                    : Japanese (Full)
Language                                 : Japanese
Default                                  : No
Forced                                   : No

Text #3
ID                                       : 6
Format                                   : ASS
Codec ID                                 : S_TEXT/ASS
Codec ID/Info                            : Advanced Sub Station Alpha
Duration                                 : 1 h 59 min
Bit rate                                 : 123 b/s
Count of elements                        : 1860
Compression mode                         : Lossless
Stream size                              : 109 KiB (0%)
Title                                    : Spanish (Full)
Language                                 : Spanish
Default                                  : No
Forced                                   : No

Menu
00:00:00.000                             : ja:01 - 5th Luna
00:14:03.009                             : ja:02 - V Gundam
00:35:17.949                             : ja:03 - Flight
00:49:53.824                             : ja:04 - Deceit
01:05:04.067                             : ja:05 - Axis
01:20:16.520                             : ja:06 - Love and Hate
01:30:40.268                             : ja:07 - Asir
01:40:47.208                             : ja:08 - Fate
01:48:00.307                             : ja:09 - Miracle
01:55:30.090                             : ja:10 - Ending
beta
Anime DDL+NZB mirror
Current Time: 24/07/2024 19:38



About/FAQs

Discord