[AnimeKaizoku] Tokyo Ghoul - 07 (1080p BD Dual Audio 10bit x265)[Lucy].mkv


File Size200.8 MB (210,591,438 bytes)
DownloadClickNUpload | Go4Up | Jheberg | MultiUp
  • ClickNupload
  • Fichier
  • Filerio
  • Free
  • Fufox
  • HugeFiles
  • Mightyupload
  • ToutBox
  • Turbobit
  • UpToBox
  • Uplea
  • UploadBaz
  • Uploadable
  • Uploaded
  • Uppit
  • Userscloud
| OpenLoad | Sendspace | SolidFiles
HashesCRC32: 6BB035C4, MD5: 66F53DF93DA837AB9D092C4B58797E33, SHA1: 103B3963477A498C6C4C83D8B3C4A0D05C845E00, SHA256: F7955D1213B8BFF179A88E68A4E73315AADE448E3AB05CBAC62111C86838E244, ED2K: 52342FD816130C3FEEB5C2AA452BA9D1
Screenshots
screenshotscreenshotscreenshotscreenshotscreenshot
SubtitlesAll Attachments | Lyrics/Signs [eng, ASS], English Subtitles [jpn, ASS]
Additional Info
General
Unique ID                                : 316883078921650468439511418016351775048 (0xEE657607CC343F33443B6EDFE75DE948)
Complete name                            : [AnimeKaizoku] Tokyo Ghoul - 07 (1080p BD Dual Audio 10bit x265)[Lucy].mkv
Format                                   : Matroska
Format version                           : Version 4 / Version 2
File size                                : 201 MiB
Duration                                 : 24 min 7 s
Overall bit rate mode                    : Variable
Overall bit rate                         : 1 164 kb/s
Movie name                               : Captivity
Writing application                      : Lavf57.72.101
Writing library                          : Lavf57.72.101 / Lavf57.72.101
ErrorDetectionType                       : Per level 1
Attachments                              : framd.ttf / GARAM28.TTF / huxtable.ttf / VAG_Rounded_Std_Light_Regular.otf / ALEX_.ttf / Angie-Bold.ttf / calibril.ttf / ChalkDust_Regular.ttf / CLEARGL.TTF
CRC_Error_Pos                            : 41085

Video
ID                                       : 1
Format                                   : HEVC
Format/Info                              : High Efficiency Video Coding
Format profile                           : @L4@Main
Codec ID                                 : V_MPEGH/ISO/HEVC
Duration                                 : 24 min 6 s
Bit rate                                 : 949 kb/s
Width                                    : 1 920 pixels
Height                                   : 1 080 pixels
Display aspect ratio                     : 16:9
Frame rate mode                          : Constant
Frame rate                               : 23.976 (24000/1001) FPS
Color space                              : YUV
Chroma subsampling                       : 4:4:4
Bit depth                                : 10 bits
Bits/(Pixel*Frame)                       : 0.019
Stream size                              : 164 MiB (82%)
Title                                    : Episode 7 - Captivity
Writing library                          : x265 2.3+42-7f77e66e30e7:[Windows][GCC 6.3.0][64 bit] 10bit
Encoding settings                        : cpuid=1050111 / frame-threads=2 / numa-pools=6 / wpp / no-pmode / no-pme / no-psnr / no-ssim / log-level=2 / input-csp=3 / input-res=1920x1080 / interlace=0 / total-frames=0 / level-idc=0 / high-tier=1 / uhd-bd=0 / ref=3 / no-allow-non-conformance / no-repeat-headers / annexb / no-aud / no-hrd / info / hash=0 / no-temporal-layers / open-gop / min-keyint=23 / keyint=250 / bframes=4 / b-adapt=2 / b-pyramid / bframe-bias=0 / rc-lookahead=20 / lookahead-slices=6 / scenecut=40 / no-intra-refresh / ctu=64 / min-cu-size=8 / no-rect / no-amp / max-tu-size=32 / tu-inter-depth=1 / tu-intra-depth=1 / limit-tu=0 / rdoq-level=0 / dynamic-rd=0.00 / no-ssim-rd / signhide / no-tskip / nr-intra=0 / nr-inter=0 / no-constrained-intra / strong-intra-smoothing / max-merge=2 / limit-refs=3 / no-limit-modes / me=1 / subme=2 / merange=57 / temporal-mvp / weightp / no-weightb / no-analyze-src-pics / deblock=0:0 / sao / no-sao-non-deblock / rd=3 / no-early-skip / rskip / no-fast-intra / no-tskip-fast / no-cu-lossless / no-b-intra / rdpenalty=0 / psy-rd=2.00 / psy-rdoq=0.00 / no-rd-refine / analysis-mode=0 / no-lossless / cbqpoffs=6 / crqpoffs=6 / rc=crf / crf=23.0 / qcomp=0.60 / qpstep=4 / stats-write=0 / stats-read=0 / ipratio=1.40 / pbratio=1.30 / aq-mode=1 / aq-strength=1.00 / cutree / zone-count=0 / no-strict-cbr / qg-size=32 / no-rc-grain / qpmax=69 / qpmin=0 / sar=1 / overscan=0 / videoformat=5 / range=0 / colorprim=2 / transfer=2 / colormatrix=2 / chromaloc=0 / display-window=0 / max-cll=0,0 / min-luma=0 / max-luma=1023 / log2-max-poc-lsb=8 / vui-timing-info / vui-hrd-info / slices=1 / opt-qp-pps / opt-ref-list-length-pps / no-multi-pass-opt-rps / scenecut-bias=0.05 / no-opt-cu-delta-qp / no-aq-motion / no-hdr / no-hdr-opt / no-dhdr10-opt / refine-level=5 / no-limit-sao
Language                                 : Japanese
Default                                  : Yes
Forced                                   : No
DURATION                                 : 00:24:05.948000000

Audio #1
ID                                       : 2
Format                                   : Vorbis
Format settings, Floor                   : 1 / 9729
Codec ID                                 : A_VORBIS
Duration                                 : 24 min 7 s
Bit rate mode                            : Variable
Bit rate                                 : 96.0 kb/s
Channel(s)                               : 6 channels
Sampling rate                            : 48.0 kHz
Compression mode                         : Lossy
Delay relative to video                  : 80 ms
Stream size                              : 16.6 MiB (8%)
Title                                    : English 5.1 FLAC
Writing application                      : Lavc57.93.100
Writing library                          : libVorbis (⛄⛄⛄⛄) (20150105 (⛄⛄⛄⛄))
Language                                 : English
Default                                  : Yes
Forced                                   : No
DURATION                                 : 00:24:07.006000000

Audio #2
ID                                       : 3
Format                                   : Vorbis
Format settings, Floor                   : 1
Codec ID                                 : A_VORBIS
Duration                                 : 24 min 7 s
Bit rate mode                            : Variable
Bit rate                                 : 96.0 kb/s
Channel(s)                               : 2 channels
Sampling rate                            : 48.0 kHz
Compression mode                         : Lossy
Stream size                              : 16.6 MiB (8%)
Title                                    : Japanese 2.0 FLAC
Writing application                      : Lavc57.93.100
Writing library                          : libVorbis (⛄⛄⛄⛄) (20150105 (⛄⛄⛄⛄))
Language                                 : Japanese
Default                                  : No
Forced                                   : No
DURATION                                 : 00:24:05.948000000

Text #1
ID                                       : 4
Format                                   : ASS
Codec ID                                 : S_TEXT/ASS
Codec ID/Info                            : Advanced Sub Station Alpha
Compression mode                         : Lossless
Title                                    : Lyrics/Signs
Language                                 : English
Default                                  : Yes
Forced                                   : No
DURATION                                 : 00:24:05.923000000

Text #2
ID                                       : 5
Format                                   : ASS
Codec ID                                 : S_TEXT/ASS
Codec ID/Info                            : Advanced Sub Station Alpha
Compression mode                         : Lossless
Title                                    : English Subtitles
Language                                 : Japanese
Default                                  : No
Forced                                   : No
DURATION                                 : 00:24:05.923000000

Menu
00:00:00.000                             : :Prologue
00:02:18.990                             : :Opening
00:03:49.000                             : :Part 1
00:10:56.920                             : :Part 2
00:22:05.920                             : :Ending
00:23:35.890                             : :Preview

Other Files in this Torrent
[AnimeKaizoku] Tokyo Ghoul - 07 (1080p BD Dual Audio 10bit x265)[Lucy].mkv
beta
Anime DDL+NZB mirror
Current Time: 05/12/2021 11:15



About/FAQs

Discord