[AnimeKaizoku] Tokyo Ghoul - 06 (1080p BD Dual Audio 10bit x265)[Lucy].mkv


File Size245.5 MB (257,403,961 bytes)
DownloadClickNUpload | Go4Up | Jheberg | MultiUp
  • ClickNupload
  • Fichier
  • Filerio
  • Free
  • Fufox
  • HugeFiles
  • Mightyupload
  • ToutBox
  • Turbobit
  • UpToBox
  • Uplea
  • UploadBaz
  • Uploadable
  • Uploaded
  • Uppit
  • Userscloud
| OpenLoad | Sendspace | SolidFiles
HashesCRC32: B20C8BA5, MD5: 79B70FD75A5931B4DB80898EFB04035E, SHA1: 33EEF8CB8B38768380B342E6F06BA0B41F4E6F5A, SHA256: F457695909E584DC82F021D2AF05073024CBA1D9D0A3FA09C0F69DB52F820741, ED2K: BCF574B3667C991D18B601F345202E32
Screenshots
screenshotscreenshotscreenshotscreenshotscreenshot
SubtitlesAll Attachments | Lyrics/Signs [eng, ASS], English Subtitles [jpn, ASS]
Additional Info
General
Unique ID                                : 250966907658367647912618543513942079189 (0xBCCE77DF4B5BAEEEEEF5C0A95443B6D5)
Complete name                            : [AnimeKaizoku] Tokyo Ghoul - 06 (1080p BD Dual Audio 10bit x265)[Lucy].mkv
Format                                   : Matroska
Format version                           : Version 4 / Version 2
File size                                : 245 MiB
Duration                                 : 24 min 1 s
Overall bit rate mode                    : Variable
Overall bit rate                         : 1 429 kb/s
Movie name                               : Cloudburst
Writing application                      : Lavf57.72.101
Writing library                          : Lavf57.72.101 / Lavf57.72.101
ErrorDetectionType                       : Per level 1
Attachments                              : CLEARGL.TTF / Disney_Simple.ttf / huxtable.ttf / ALEX_.ttf / Angie-Bold.ttf
CRC_Error_Pos                            : 43859

Video
ID                                       : 1
Format                                   : HEVC
Format/Info                              : High Efficiency Video Coding
Format profile                           : @L4@Main
Codec ID                                 : V_MPEGH/ISO/HEVC
Duration                                 : 24 min 1 s
Bit rate                                 : 1 209 kb/s
Width                                    : 1 920 pixels
Height                                   : 1 080 pixels
Display aspect ratio                     : 16:9
Frame rate mode                          : Constant
Frame rate                               : 23.976 (24000/1001) FPS
Color space                              : YUV
Chroma subsampling                       : 4:4:4
Bit depth                                : 10 bits
Bits/(Pixel*Frame)                       : 0.024
Stream size                              : 208 MiB (85%)
Title                                    : Episode 6 - Cloudburst
Writing library                          : x265 2.3+42-7f77e66e30e7:[Windows][GCC 6.3.0][64 bit] 10bit
Encoding settings                        : cpuid=1050111 / frame-threads=2 / numa-pools=6 / wpp / no-pmode / no-pme / no-psnr / no-ssim / log-level=2 / input-csp=3 / input-res=1920x1080 / interlace=0 / total-frames=0 / level-idc=0 / high-tier=1 / uhd-bd=0 / ref=3 / no-allow-non-conformance / no-repeat-headers / annexb / no-aud / no-hrd / info / hash=0 / no-temporal-layers / open-gop / min-keyint=23 / keyint=250 / bframes=4 / b-adapt=2 / b-pyramid / bframe-bias=0 / rc-lookahead=20 / lookahead-slices=6 / scenecut=40 / no-intra-refresh / ctu=64 / min-cu-size=8 / no-rect / no-amp / max-tu-size=32 / tu-inter-depth=1 / tu-intra-depth=1 / limit-tu=0 / rdoq-level=0 / dynamic-rd=0.00 / no-ssim-rd / signhide / no-tskip / nr-intra=0 / nr-inter=0 / no-constrained-intra / strong-intra-smoothing / max-merge=2 / limit-refs=3 / no-limit-modes / me=1 / subme=2 / merange=57 / temporal-mvp / weightp / no-weightb / no-analyze-src-pics / deblock=0:0 / sao / no-sao-non-deblock / rd=3 / no-early-skip / rskip / no-fast-intra / no-tskip-fast / no-cu-lossless / no-b-intra / rdpenalty=0 / psy-rd=2.00 / psy-rdoq=0.00 / no-rd-refine / analysis-mode=0 / no-lossless / cbqpoffs=6 / crqpoffs=6 / rc=crf / crf=23.0 / qcomp=0.60 / qpstep=4 / stats-write=0 / stats-read=0 / ipratio=1.40 / pbratio=1.30 / aq-mode=1 / aq-strength=1.00 / cutree / zone-count=0 / no-strict-cbr / qg-size=32 / no-rc-grain / qpmax=69 / qpmin=0 / sar=1 / overscan=0 / videoformat=5 / range=0 / colorprim=2 / transfer=2 / colormatrix=2 / chromaloc=0 / display-window=0 / max-cll=0,0 / min-luma=0 / max-luma=1023 / log2-max-poc-lsb=8 / vui-timing-info / vui-hrd-info / slices=1 / opt-qp-pps / opt-ref-list-length-pps / no-multi-pass-opt-rps / scenecut-bias=0.05 / no-opt-cu-delta-qp / no-aq-motion / no-hdr / no-hdr-opt / no-dhdr10-opt / refine-level=5 / no-limit-sao
Language                                 : Japanese
Default                                  : Yes
Forced                                   : No
DURATION                                 : 00:23:59.984000000

Audio #1
ID                                       : 2
Format                                   : Vorbis
Format settings, Floor                   : 1 / 9729
Codec ID                                 : A_VORBIS
Duration                                 : 24 min 1 s
Bit rate mode                            : Variable
Bit rate                                 : 96.0 kb/s
Channel(s)                               : 6 channels
Sampling rate                            : 48.0 kHz
Compression mode                         : Lossy
Delay relative to video                  : 83 ms
Stream size                              : 16.5 MiB (7%)
Title                                    : English 5.1 FLAC
Writing application                      : Lavc57.93.100
Writing library                          : libVorbis (⛄⛄⛄⛄) (20150105 (⛄⛄⛄⛄))
Language                                 : English
Default                                  : Yes
Forced                                   : No
DURATION                                 : 00:24:01.047000000

Audio #2
ID                                       : 3
Format                                   : Vorbis
Format settings, Floor                   : 1
Codec ID                                 : A_VORBIS
Duration                                 : 24 min 1 s
Bit rate mode                            : Variable
Bit rate                                 : 96.0 kb/s
Channel(s)                               : 2 channels
Sampling rate                            : 48.0 kHz
Compression mode                         : Lossy
Stream size                              : 16.5 MiB (7%)
Title                                    : Japanese 2.0 FLAC
Writing application                      : Lavc57.93.100
Writing library                          : libVorbis (⛄⛄⛄⛄) (20150105 (⛄⛄⛄⛄))
Language                                 : Japanese
Default                                  : No
Forced                                   : No
DURATION                                 : 00:23:59.983000000

Text #1
ID                                       : 4
Format                                   : ASS
Codec ID                                 : S_TEXT/ASS
Codec ID/Info                            : Advanced Sub Station Alpha
Compression mode                         : Lossless
Title                                    : Lyrics/Signs
Language                                 : English
Default                                  : Yes
Forced                                   : No
DURATION                                 : 00:24:00.003000000

Text #2
ID                                       : 5
Format                                   : ASS
Codec ID                                 : S_TEXT/ASS
Codec ID/Info                            : Advanced Sub Station Alpha
Compression mode                         : Lossless
Title                                    : English Subtitles
Language                                 : Japanese
Default                                  : No
Forced                                   : No
DURATION                                 : 00:24:00.003000000

Menu
00:00:00.000                             : :Prologue
00:05:19.960                             : :Opening
00:06:49.970                             : :Part 1
00:14:50.910                             : :Part 2
00:21:58.460                             : :Ending
00:23:29.970                             : :Preview

Other Files in this Torrent
[AnimeKaizoku] Tokyo Ghoul - 06 (1080p BD Dual Audio 10bit x265)[Lucy].mkv
beta
Anime DDL+NZB mirror
Current Time: 05/12/2021 11:09



About/FAQs

Discord