[AkihitoSubs] Pocket Monsters (Pokemon 2019) - 001 Pikachu is Bornl [1080p][HEVC][x265][AAC][10Bit].mkv


File Size390.3 MB (409,277,090 bytes)
DownloadClickNUpload | Jheberg | MultiUp
  • BdUpload
  • DownAce
  • Fichier
  • FileCloud
  • Filerio
  • FilesCdn
  • IndiShare
  • Kbagi
  • Turbobit
  • UpToBox
  • Uppit
| SolidFiles | ZippyShare
Sendspace: Part1, Part2
HashesCRC32: E7774770, MD5: D3A8847F36C5E308F0D70A37065EAB2E, SHA1: EB34D604F6E03BC3E343264DA9BD30A96EA6F7F5, SHA256: 17EF219DC5E46AF8AD58EDFDB9ACD7FBF5A8F3BD063E1C70F775D06D43349B86, ED2K: DC0B8A1A9A40D385F6719CAC6E79D0BC
Screenshots
screenshotscreenshotscreenshotscreenshotscreenshot
SubtitlesAll Attachments | und [ASS]
Additional Info
General
Unique ID                                : 103821078651944219314688282602044009092 (0x4E1B366161DF48B7A3A541072B722A84)
Complete name                            : [AkihitoSubs] Pocket Monsters (Pokemon 2019) - 001 Pikachu is Bornl [1080p][HEVC][x265][AAC][10Bit].mkv
Format                                   : Matroska
Format version                           : Version 4
File size                                : 390 MiB
Duration                                 : 24 min 35 s
Overall bit rate                         : 2 218 kb/s
Encoded date                             : UTC 2019-11-18 08:03:33
Writing application                      : mkvmerge v9.8.0 ('Kuglblids') 64bit
Writing library                          : libebml v1.3.4 + libmatroska v1.4.5 / Lavf57.56.101
Attachments                              : Candarab.ttf / Candarai.ttf / Candara.ttf / Candaraz.ttf / nintendoP_Humming-E_003.ttf / ヒラギノ角ゴ W5.ttc

Video
ID                                       : 1
Format                                   : HEVC
Format/Info                              : High Efficiency Video Coding
Format profile                           : Main 10@L5@Main
Codec ID                                 : V_MPEGH/ISO/HEVC
Duration                                 : 24 min 34 s
Bit rate                                 : 1 968 kb/s
Width                                    : 1 920 pixels
Height                                   : 1 080 pixels
Display aspect ratio                     : 16:9
Frame rate mode                          : Constant
Frame rate                               : 29.970 (30000/1001) FPS
Color space                              : YUV
Chroma subsampling                       : 4:2:0
Bit depth                                : 10 bits
Bits/(Pixel*Frame)                       : 0.032
Stream size                              : 346 MiB (89%)
Writing library                          : x265 0.0:[Linux][GCC 6.3.0][64 bit] 10bit
Encoding settings                        : wpp / ctu=64 / min-cu-size=8 / max-tu-size=32 / tu-intra-depth=1 / tu-inter-depth=1 / me=3 / subme=2 / merange=38 / no-rect / no-amp / max-merge=2 / temporal-mvp / no-early-skip / rskip / rdpenalty=0 / no-tskip / no-tskip-fast / no-strong-intra-smoothing / no-lossless / no-cu-lossless / no-constrained-intra / no-fast-intra / open-gop / no-temporal-layers / interlace=0 / keyint=250 / min-keyint=25 / scenecut=40 / rc-lookahead=50 / lookahead-slices=6 / bframes=4 / bframe-bias=0 / b-adapt=2 / ref=6 / limit-refs=3 / no-limit-modes / weightp / no-weightb / aq-mode=3 / qg-size=32 / aq-strength=0.70 / cbqpoffs=0 / crqpoffs=0 / rd=4 / psy-rd=0.67 / rdoq-level=0 / psy-rdoq=0.00 / log2-max-poc-lsb=8 / no-rd-refine / signhide / deblock=0:0 / sao / no-sao-non-deblock / b-pyramid / cutree / no-intra-refresh / rc=crf / crf=23.0 / qcomp=0.60 / qpmin=0 / qpmax=69 / qpstep=4 / ipratio=1.40 / pbratio=1.30
Default                                  : Yes
Forced                                   : No

Audio
ID                                       : 2
Format                                   : AAC LC
Format/Info                              : Advanced Audio Codec Low Complexity
Codec ID                                 : A_AAC-2
Duration                                 : 24 min 35 s
Bit rate                                 : 192 kb/s
Channel(s)                               : 2 channels
Channel layout                           : L R
Sampling rate                            : 48.0 kHz
Frame rate                               : 46.875 FPS (1024 SPF)
Compression mode                         : Lossy
Stream size                              : 33.7 MiB (9%)
Language                                 : English
Default                                  : Yes
Forced                                   : No

Text
ID                                       : 3
Format                                   : ASS
Codec ID                                 : S_TEXT/ASS
Codec ID/Info                            : Advanced Sub Station Alpha
Duration                                 : 24 min 28 s
Bit rate                                 : 79 b/s
Count of elements                        : 235
Compression mode                         : Lossless
Stream size                              : 14.3 KiB (0%)
Default                                  : Yes
Forced                                   : No

Menu
00:00:00.000                             : :Part A
00:12:59.999                             : :Part B
00:21:52.872                             : :Opening
00:23:21.086                             : :Part C
00:24:00.042                             : :Preview
beta
Anime DDL+NZB mirror
Current Time: 20/07/2024 02:26



About/FAQs

Discord