Aggretsuko.S03E09.The.End.of.the.Moratorium.1080p.WEB-DL.DDP5.1.H.264-aKraa.mkv


File Size1.134 GB (1,217,596,853 bytes)
DownloadAnonFiles | ClickNUpload | DropAPK
Free: Part1, Part2
MultiUp: Part1
  • BdUpload
  • DownAce
  • Fichier
  • FileCloud
  • Filerio
  • FilesCdn
  • IndiShare
  • Kbagi
  • Turbobit
  • UpToBox
  • Uppit
, Part2
  • BdUpload
  • DownAce
  • Fichier
  • FileCloud
  • Filerio
  • FilesCdn
  • IndiShare
  • Kbagi
  • Turbobit
  • UpToBox
  • Uppit
, Part3
  • BdUpload
  • DownAce
  • Fichier
  • FileCloud
  • Filerio
  • FilesCdn
  • IndiShare
  • Kbagi
  • Turbobit
  • UpToBox
  • Uppit

Sendspace: Part1, Part2, Part3, Part4
SolidFiles: Part1, Part2, Part3
ZippyShare: Part1, Part2, Part3
HashesCRC32: 3ABC1EF9, MD5: 8C89AF25658F7FEF934EC38DDA57133D, SHA1: 7AFDB9A9C444B77D7A90977DFA08F131FEB19B7B, SHA256: 2162420BCCC8FC428C158973646C58A5C6FF0F8DF41858B70CA50F62002FE9CA, ED2K: FE0139B4C987E52469D76FAD92C5938F
Screenshots
screenshotscreenshotscreenshotscreenshotscreenshot
SubtitlesAll Attachments | eng [SRT], ara [SRT], cze [SRT], dan [SRT], ger [SRT], gre [SRT], spa [SRT], European [spa, SRT], fin [SRT], fre [SRT], heb [SRT], hun [SRT], ind [SRT], ita [SRT], jpn [SRT], kor [SRT], nor [SRT], dut [SRT], pol [SRT], por [SRT], Brazilian [por, SRT], rum [SRT], rus [SRT], swe [SRT], tha [SRT], tur [SRT], vie [SRT], Simplified [chi, SRT], Traditional [chi, SRT]
Additional Info
General
Unique ID                                : 63690923640692391784177050254476615526 (0x2FEA6CFAD7480B4D7E48CDC052189F66)
Complete name                            : Aggretsuko.S03E09.The.End.of.the.Moratorium.1080p.WEB-DL.DDP5.1.H.264-aKraa.mkv
Format                                   : Matroska
Format version                           : Version 4
File size                                : 1.13 GiB
Duration                                 : 16 min 4 s
Overall bit rate mode                    : Variable
Overall bit rate                         : 10.1 Mb/s
Encoded date                             : UTC 2020-08-27 11:30:08
Writing application                      : mkvmerge v44.0.0 ('Domino') 64-bit
Writing library                          : libebml v1.3.10 + libmatroska v1.5.2 / Lavf58.29.100

Video
ID                                       : 1
Format                                   : AVC
Format/Info                              : Advanced Video Codec
Format profile                           : Main@L4
Format settings                          : CABAC / 3 Ref Frames
Format settings, CABAC                   : Yes
Format settings, ReFrames                : 3 frames
Codec ID                                 : V_MPEG4/ISO/AVC
Duration                                 : 16 min 4 s
Bit rate mode                            : Variable
Bit rate                                 : 4 420 kb/s
Maximum bit rate                         : 6 630 kb/s
Width                                    : 1 920 pixels
Height                                   : 1 080 pixels
Display aspect ratio                     : 16:9
Frame rate mode                          : Constant
Frame rate                               : 24.000 FPS
Color space                              : YUV
Chroma subsampling                       : 4:2:0
Bit depth                                : 8 bits
Scan type                                : Progressive
Bits/(Pixel*Frame)                       : 0.089
Stream size                              : 498 MiB (43%)
Writing library                          : x264 core 148 r2717 0d2410d
Encoding settings                        : cabac=1 / ref=3 / deblock=1:0:0 / analyse=0x1:0x111 / me=umh / subme=10 / psy=1 / psy_rd=1.00:0.00 / mixed_ref=1 / me_range=24 / chroma_me=1 / trellis=2 / 8x8dct=0 / cqm=0 / deadzone=21,11 / fast_pskip=1 / chroma_qp_offset=-2 / threads=8 / lookahead_threads=1 / sliced_threads=0 / nr=0 / decimate=1 / interlaced=0 / bluray_compat=0 / stitchable=1 / constrained_intra=0 / bframes=2 / b_pyramid=0 / b_adapt=2 / b_bias=0 / direct=3 / weightb=1 / open_gop=0 / weightp=2 / keyint=250 / keyint_min=24 / scenecut=0 / intra_refresh=0 / rc_lookahead=48 / rc=2pass / mbtree=1 / bitrate=4420 / ratetol=1.0 / qcomp=0.50 / qpmin=6 / qpmax=51 / qpstep=4 / cplxblur=20.0 / qblur=0.5 / vbv_maxrate=6630 / vbv_bufsize=8840 / nal_hrd=vbr / filler=0 / ip_ratio=1.40 / aq=1:1.00
Default                                  : Yes
Forced                                   : No

Audio #1
ID                                       : 2
Format                                   : E-AC-3
Format/Info                              : Enhanced AC-3
Commercial name                          : Dolby Digital Plus
Codec ID                                 : A_EAC3
Duration                                 : 16 min 4 s
Bit rate mode                            : Constant
Bit rate                                 : 640 kb/s
Channel(s)                               : 6 channels
Channel layout                           : L R C LFE Ls Rs
Sampling rate                            : 48.0 kHz
Frame rate                               : 31.250 FPS (1536 SPF)
Compression mode                         : Lossy
Stream size                              : 73.6 MiB (6%)
Language                                 : Japanese
Service kind                             : Complete Main
Default                                  : Yes
Forced                                   : No

Audio #2
ID                                       : 3
Format                                   : E-AC-3
Format/Info                              : Enhanced AC-3
Commercial name                          : Dolby Digital Plus
Codec ID                                 : A_EAC3
Duration                                 : 16 min 4 s
Bit rate mode                            : Constant
Bit rate                                 : 640 kb/s
Channel(s)                               : 6 channels
Channel layout                           : L R C LFE Ls Rs
Sampling rate                            : 48.0 kHz
Frame rate                               : 31.250 FPS (1536 SPF)
Compression mode                         : Lossy
Stream size                              : 73.6 MiB (6%)
Title                                    : Audio Description
Language                                 : Japanese
Service kind                             : Complete Main
Default                                  : No
Forced                                   : No

Audio #3
ID                                       : 4
Format                                   : E-AC-3
Format/Info                              : Enhanced AC-3
Commercial name                          : Dolby Digital Plus
Codec ID                                 : A_EAC3
Duration                                 : 16 min 4 s
Bit rate mode                            : Constant
Bit rate                                 : 640 kb/s
Channel(s)                               : 6 channels
Channel layout                           : L R C LFE Ls Rs
Sampling rate                            : 48.0 kHz
Frame rate                               : 31.250 FPS (1536 SPF)
Compression mode                         : Lossy
Stream size                              : 73.6 MiB (6%)
Language                                 : English
Service kind                             : Complete Main
Default                                  : No
Forced                                   : No

Audio #4
ID                                       : 5
Format                                   : E-AC-3
Format/Info                              : Enhanced AC-3
Commercial name                          : Dolby Digital Plus
Codec ID                                 : A_EAC3
Duration                                 : 16 min 4 s
Bit rate mode                            : Constant
Bit rate                                 : 640 kb/s
Channel(s)                               : 6 channels
Channel layout                           : L R C LFE Ls Rs
Sampling rate                            : 48.0 kHz
Frame rate                               : 31.250 FPS (1536 SPF)
Compression mode                         : Lossy
Stream size                              : 73.6 MiB (6%)
Language                                 : German
Service kind                             : Complete Main
Default                                  : No
Forced                                   : No

Audio #5
ID                                       : 6
Format                                   : E-AC-3
Format/Info                              : Enhanced AC-3
Commercial name                          : Dolby Digital Plus
Codec ID                                 : A_EAC3
Duration                                 : 16 min 4 s
Bit rate mode                            : Constant
Bit rate                                 : 640 kb/s
Channel(s)                               : 6 channels
Channel layout                           : L R C LFE Ls Rs
Sampling rate                            : 48.0 kHz
Frame rate                               : 31.250 FPS (1536 SPF)
Compression mode                         : Lossy
Stream size                              : 73.6 MiB (6%)
Language                                 : Spanish
Service kind                             : Complete Main
Default                                  : No
Forced                                   : No

Audio #6
ID                                       : 7
Format                                   : E-AC-3
Format/Info                              : Enhanced AC-3
Commercial name                          : Dolby Digital Plus
Codec ID                                 : A_EAC3
Duration                                 : 16 min 4 s
Bit rate mode                            : Constant
Bit rate                                 : 640 kb/s
Channel(s)                               : 6 channels
Channel layout                           : L R C LFE Ls Rs
Sampling rate                            : 48.0 kHz
Frame rate                               : 31.250 FPS (1536 SPF)
Compression mode                         : Lossy
Stream size                              : 73.6 MiB (6%)
Title                                    : European
Language                                 : Spanish
Service kind                             : Complete Main
Default                                  : No
Forced                                   : No

Audio #7
ID                                       : 8
Format                                   : E-AC-3
Format/Info                              : Enhanced AC-3
Commercial name                          : Dolby Digital Plus
Codec ID                                 : A_EAC3
Duration                                 : 16 min 4 s
Bit rate mode                            : Constant
Bit rate                                 : 640 kb/s
Channel(s)                               : 6 channels
Channel layout                           : L R C LFE Ls Rs
Sampling rate                            : 48.0 kHz
Frame rate                               : 31.250 FPS (1536 SPF)
Compression mode                         : Lossy
Stream size                              : 73.6 MiB (6%)
Language                                 : French
Service kind                             : Complete Main
Default                                  : No
Forced                                   : No

Audio #8
ID                                       : 9
Format                                   : E-AC-3
Format/Info                              : Enhanced AC-3
Commercial name                          : Dolby Digital Plus
Codec ID                                 : A_EAC3
Duration                                 : 16 min 4 s
Bit rate mode                            : Constant
Bit rate                                 : 640 kb/s
Channel(s)                               : 6 channels
Channel layout                           : L R C LFE Ls Rs
Sampling rate                            : 48.0 kHz
Frame rate                               : 31.250 FPS (1536 SPF)
Compression mode                         : Lossy
Stream size                              : 73.6 MiB (6%)
Language                                 : Italian
Service kind                             : Complete Main
Default                                  : No
Forced                                   : No

Audio #9
ID                                       : 10
Format                                   : E-AC-3
Format/Info                              : Enhanced AC-3
Commercial name                          : Dolby Digital Plus
Codec ID                                 : A_EAC3
Duration                                 : 16 min 4 s
Bit rate mode                            : Constant
Bit rate                                 : 640 kb/s
Channel(s)                               : 6 channels
Channel layout                           : L R C LFE Ls Rs
Sampling rate                            : 48.0 kHz
Frame rate                               : 31.250 FPS (1536 SPF)
Compression mode                         : Lossy
Stream size                              : 73.6 MiB (6%)
Title                                    : Cantonese
Language                                 : Chinese
Service kind                             : Complete Main
Default                                  : No
Forced                                   : No

Text #1
ID                                       : 11
Format                                   : UTF-8
Codec ID                                 : S_TEXT/UTF8
Codec ID/Info                            : UTF-8 Plain Text
Duration                                 : 15 min 23 s
Bit rate                                 : 62 b/s
Count of elements                        : 210
Stream size                              : 7.00 KiB (0%)
Language                                 : English
Default                                  : Yes
Forced                                   : No

Text #2
ID                                       : 12
Format                                   : UTF-8
Codec ID                                 : S_TEXT/UTF8
Codec ID/Info                            : UTF-8 Plain Text
Duration                                 : 15 min 30 s
Bit rate                                 : 92 b/s
Count of elements                        : 216
Stream size                              : 10.6 KiB (0%)
Language                                 : Arabic
Default                                  : No
Forced                                   : No

Text #3
ID                                       : 13
Format                                   : UTF-8
Codec ID                                 : S_TEXT/UTF8
Codec ID/Info                            : UTF-8 Plain Text
Duration                                 : 15 min 30 s
Bit rate                                 : 59 b/s
Count of elements                        : 216
Stream size                              : 6.76 KiB (0%)
Language                                 : Czech
Default                                  : No
Forced                                   : No

Text #4
ID                                       : 14
Format                                   : UTF-8
Codec ID                                 : S_TEXT/UTF8
Codec ID/Info                            : UTF-8 Plain Text
Duration                                 : 15 min 3 s
Bit rate                                 : 58 b/s
Count of elements                        : 172
Stream size                              : 6.43 KiB (0%)
Language                                 : Danish
Default                                  : No
Forced                                   : No

Text #5
ID                                       : 15
Format                                   : UTF-8
Codec ID                                 : S_TEXT/UTF8
Codec ID/Info                            : UTF-8 Plain Text
Duration                                 : 15 min 30 s
Bit rate                                 : 60 b/s
Count of elements                        : 207
Stream size                              : 6.82 KiB (0%)
Language                                 : German
Default                                  : No
Forced                                   : No

Text #6
ID                                       : 16
Format                                   : UTF-8
Codec ID                                 : S_TEXT/UTF8
Codec ID/Info                            : UTF-8 Plain Text
Duration                                 : 15 min 3 s
Bit rate                                 : 110 b/s
Count of elements                        : 222
Stream size                              : 12.2 KiB (0%)
Language                                 : Greek
Default                                  : No
Forced                                   : No

Text #7
ID                                       : 17
Format                                   : UTF-8
Codec ID                                 : S_TEXT/UTF8
Codec ID/Info                            : UTF-8 Plain Text
Duration                                 : 15 min 30 s
Bit rate                                 : 59 b/s
Count of elements                        : 213
Stream size                              : 6.71 KiB (0%)
Language                                 : Spanish
Default                                  : No
Forced                                   : No

Text #8
ID                                       : 18
Format                                   : UTF-8
Codec ID                                 : S_TEXT/UTF8
Codec ID/Info                            : UTF-8 Plain Text
Duration                                 : 15 min 30 s
Bit rate                                 : 66 b/s
Count of elements                        : 215
Stream size                              : 7.51 KiB (0%)
Title                                    : European
Language                                 : Spanish
Default                                  : No
Forced                                   : No

Text #9
ID                                       : 19
Format                                   : UTF-8
Codec ID                                 : S_TEXT/UTF8
Codec ID/Info                            : UTF-8 Plain Text
Duration                                 : 15 min 3 s
Bit rate                                 : 61 b/s
Count of elements                        : 172
Stream size                              : 6.83 KiB (0%)
Language                                 : Finnish
Default                                  : No
Forced                                   : No

Text #10
ID                                       : 20
Format                                   : UTF-8
Codec ID                                 : S_TEXT/UTF8
Codec ID/Info                            : UTF-8 Plain Text
Duration                                 : 15 min 30 s
Bit rate                                 : 62 b/s
Count of elements                        : 214
Stream size                              : 7.15 KiB (0%)
Language                                 : French
Default                                  : No
Forced                                   : No

Text #11
ID                                       : 21
Format                                   : UTF-8
Codec ID                                 : S_TEXT/UTF8
Codec ID/Info                            : UTF-8 Plain Text
Duration                                 : 15 min 1 s
Bit rate                                 : 86 b/s
Count of elements                        : 213
Stream size                              : 9.52 KiB (0%)
Language                                 : Hebrew
Default                                  : No
Forced                                   : No

Text #12
ID                                       : 22
Format                                   : UTF-8
Codec ID                                 : S_TEXT/UTF8
Codec ID/Info                            : UTF-8 Plain Text
Duration                                 : 15 min 30 s
Bit rate                                 : 55 b/s
Count of elements                        : 212
Stream size                              : 6.34 KiB (0%)
Language                                 : Hungarian
Default                                  : No
Forced                                   : No

Text #13
ID                                       : 23
Format                                   : UTF-8
Codec ID                                 : S_TEXT/UTF8
Codec ID/Info                            : UTF-8 Plain Text
Duration                                 : 15 min 30 s
Bit rate                                 : 57 b/s
Count of elements                        : 216
Stream size                              : 6.48 KiB (0%)
Language                                 : Indonesian
Default                                  : No
Forced                                   : No

Text #14
ID                                       : 24
Format                                   : UTF-8
Codec ID                                 : S_TEXT/UTF8
Codec ID/Info                            : UTF-8 Plain Text
Duration                                 : 15 min 30 s
Bit rate                                 : 62 b/s
Count of elements                        : 212
Stream size                              : 7.12 KiB (0%)
Language                                 : Italian
Default                                  : No
Forced                                   : No

Text #15
ID                                       : 25
Format                                   : UTF-8
Codec ID                                 : S_TEXT/UTF8
Codec ID/Info                            : UTF-8 Plain Text
Duration                                 : 15 min 26 s
Bit rate                                 : 88 b/s
Count of elements                        : 228
Stream size                              : 9.96 KiB (0%)
Language                                 : Japanese
Default                                  : No
Forced                                   : No

Text #16
ID                                       : 26
Format                                   : UTF-8
Codec ID                                 : S_TEXT/UTF8
Codec ID/Info                            : UTF-8 Plain Text
Duration                                 : 15 min 30 s
Bit rate                                 : 72 b/s
Count of elements                        : 214
Stream size                              : 8.25 KiB (0%)
Language                                 : Korean
Default                                  : No
Forced                                   : No

Text #17
ID                                       : 27
Format                                   : UTF-8
Codec ID                                 : S_TEXT/UTF8
Codec ID/Info                            : UTF-8 Plain Text
Duration                                 : 15 min 3 s
Bit rate                                 : 57 b/s
Count of elements                        : 169
Stream size                              : 6.38 KiB (0%)
Language                                 : Norwegian
Default                                  : No
Forced                                   : No

Text #18
ID                                       : 28
Format                                   : UTF-8
Codec ID                                 : S_TEXT/UTF8
Codec ID/Info                            : UTF-8 Plain Text
Duration                                 : 15 min 30 s
Bit rate                                 : 53 b/s
Count of elements                        : 210
Stream size                              : 6.09 KiB (0%)
Language                                 : Dutch
Default                                  : No
Forced                                   : No

Text #19
ID                                       : 29
Format                                   : UTF-8
Codec ID                                 : S_TEXT/UTF8
Codec ID/Info                            : UTF-8 Plain Text
Duration                                 : 15 min 30 s
Bit rate                                 : 56 b/s
Count of elements                        : 212
Stream size                              : 6.40 KiB (0%)
Language                                 : Polish
Default                                  : No
Forced                                   : No

Text #20
ID                                       : 30
Format                                   : UTF-8
Codec ID                                 : S_TEXT/UTF8
Codec ID/Info                            : UTF-8 Plain Text
Duration                                 : 15 min 30 s
Bit rate                                 : 59 b/s
Count of elements                        : 212
Stream size                              : 6.71 KiB (0%)
Language                                 : Portuguese
Default                                  : No
Forced                                   : No

Text #21
ID                                       : 31
Format                                   : UTF-8
Codec ID                                 : S_TEXT/UTF8
Codec ID/Info                            : UTF-8 Plain Text
Duration                                 : 15 min 30 s
Bit rate                                 : 60 b/s
Count of elements                        : 214
Stream size                              : 6.92 KiB (0%)
Title                                    : Brazilian
Language                                 : Portuguese
Default                                  : No
Forced                                   : No

Text #22
ID                                       : 32
Format                                   : UTF-8
Codec ID                                 : S_TEXT/UTF8
Codec ID/Info                            : UTF-8 Plain Text
Duration                                 : 15 min 30 s
Bit rate                                 : 64 b/s
Count of elements                        : 213
Stream size                              : 7.33 KiB (0%)
Language                                 : Romanian
Default                                  : No
Forced                                   : No

Text #23
ID                                       : 33
Format                                   : UTF-8
Codec ID                                 : S_TEXT/UTF8
Codec ID/Info                            : UTF-8 Plain Text
Duration                                 : 15 min 30 s
Bit rate                                 : 106 b/s
Count of elements                        : 221
Stream size                              : 12.1 KiB (0%)
Language                                 : Russian
Default                                  : No
Forced                                   : No

Text #24
ID                                       : 34
Format                                   : UTF-8
Codec ID                                 : S_TEXT/UTF8
Codec ID/Info                            : UTF-8 Plain Text
Duration                                 : 15 min 3 s
Bit rate                                 : 62 b/s
Count of elements                        : 168
Stream size                              : 6.88 KiB (0%)
Language                                 : Swedish
Default                                  : No
Forced                                   : No

Text #25
ID                                       : 35
Format                                   : UTF-8
Codec ID                                 : S_TEXT/UTF8
Codec ID/Info                            : UTF-8 Plain Text
Duration                                 : 15 min 30 s
Bit rate                                 : 140 b/s
Count of elements                        : 216
Stream size                              : 15.9 KiB (0%)
Language                                 : Thai
Default                                  : No
Forced                                   : No

Text #26
ID                                       : 36
Format                                   : UTF-8
Codec ID                                 : S_TEXT/UTF8
Codec ID/Info                            : UTF-8 Plain Text
Duration                                 : 15 min 30 s
Bit rate                                 : 62 b/s
Count of elements                        : 213
Stream size                              : 7.14 KiB (0%)
Language                                 : Turkish
Default                                  : No
Forced                                   : No

Text #27
ID                                       : 37
Format                                   : UTF-8
Codec ID                                 : S_TEXT/UTF8
Codec ID/Info                            : UTF-8 Plain Text
Duration                                 : 15 min 30 s
Bit rate                                 : 67 b/s
Count of elements                        : 212
Stream size                              : 7.62 KiB (0%)
Language                                 : Vietnamese
Default                                  : No
Forced                                   : No

Text #28
ID                                       : 38
Format                                   : UTF-8
Codec ID                                 : S_TEXT/UTF8
Codec ID/Info                            : UTF-8 Plain Text
Duration                                 : 15 min 30 s
Bit rate                                 : 59 b/s
Count of elements                        : 213
Stream size                              : 6.74 KiB (0%)
Title                                    : Simplified
Language                                 : Chinese
Default                                  : No
Forced                                   : No

Text #29
ID                                       : 39
Format                                   : UTF-8
Codec ID                                 : S_TEXT/UTF8
Codec ID/Info                            : UTF-8 Plain Text
Duration                                 : 15 min 30 s
Bit rate                                 : 61 b/s
Count of elements                        : 213
Stream size                              : 7.02 KiB (0%)
Title                                    : Traditional
Language                                 : Chinese
Default                                  : No
Forced                                   : No

Other Files in this Torrent
Aggretsuko.S03E09.The.End.of.the.Moratorium.1080p.WEB-DL.DDP5.1.H.264-aKraa.mkv
beta
Anime DDL+NZB mirror
Current Time: 05/12/2021 11:17



About/FAQs

Discord