File Size1.211 GB (1,300,067,132 bytes)
DownloadAnonFiles | ClickNUpload | DropAPK
Free: Part1, Part2
MultiUp: Part1
  • BdUpload
  • DownAce
  • Fichier
  • FileCloud
  • Filerio
  • FilesCdn
  • IndiShare
  • Kbagi
  • Turbobit
  • UpToBox
  • Uppit
, Part2
  • BdUpload
  • DownAce
  • Fichier
  • FileCloud
  • Filerio
  • FilesCdn
  • IndiShare
  • Kbagi
  • Turbobit
  • UpToBox
  • Uppit
, Part3
  • BdUpload
  • DownAce
  • Fichier
  • FileCloud
  • Filerio
  • FilesCdn
  • IndiShare
  • Kbagi
  • Turbobit
  • UpToBox
  • Uppit

Sendspace: Part1, Part2, Part3, Part4, Part5
SolidFiles: Part1, Part2, Part3
ZippyShare: Part1, Part2, Part3
HashesCRC32: 99D22C44, MD5: 16FE24B4DB8DF994648679A7AA3AAD2D, SHA1: BFB76F5D631F4637808808D786C8C45AEE4C39D9, SHA256: 3BC3BD1A89193F144D31CF4DF3276B2F2FEEB861F6661FEAB1EC6B015A211829, ED2K: 8FAE2FD2CD58E414E2FAAAE432146553
Screenshots
screenshotscreenshotscreenshotscreenshotscreenshot
SubtitlesAll Attachments | eng [SRT], ara [SRT], cze [SRT], dan [SRT], ger [SRT], gre [SRT], spa [SRT], European [spa, SRT], fin [SRT], fre [SRT], heb [SRT], hun [SRT], ind [SRT], ita [SRT], jpn [SRT], kor [SRT], nor [SRT], dut [SRT], pol [SRT], por [SRT], Brazilian [por, SRT], rum [SRT], rus [SRT], swe [SRT], tha [SRT], tur [SRT], vie [SRT], Simplified [chi, SRT], Traditional [chi, SRT]
Additional Info
General
Unique ID                                : 137631351405967972199816131222198164099 (0x678AD5874F79980D6025FB501A761A83)
Complete name                            : Aggretsuko.S03E05.An.Urchin.in.the.Desert.1080p.WEB-DL.DDP5.1.H.264-aKraa.mkv
Format                                   : Matroska
Format version                           : Version 4
File size                                : 1.21 GiB
Duration                                 : 16 min 6 s
Overall bit rate mode                    : Variable
Overall bit rate                         : 10.8 Mb/s
Encoded date                             : UTC 2020-08-27 11:09:51
Writing application                      : mkvmerge v44.0.0 ('Domino') 64-bit
Writing library                          : libebml v1.3.10 + libmatroska v1.5.2 / Lavf58.29.100

Video
ID                                       : 1
Format                                   : AVC
Format/Info                              : Advanced Video Codec
Format profile                           : Main@L4
Format settings                          : CABAC / 3 Ref Frames
Format settings, CABAC                   : Yes
Format settings, ReFrames                : 3 frames
Codec ID                                 : V_MPEG4/ISO/AVC
Duration                                 : 16 min 6 s
Bit rate mode                            : Variable
Bit rate                                 : 5 110 kb/s
Maximum bit rate                         : 7 665 kb/s
Width                                    : 1 920 pixels
Height                                   : 1 080 pixels
Display aspect ratio                     : 16:9
Frame rate mode                          : Constant
Frame rate                               : 24.000 FPS
Color space                              : YUV
Chroma subsampling                       : 4:2:0
Bit depth                                : 8 bits
Scan type                                : Progressive
Bits/(Pixel*Frame)                       : 0.103
Stream size                              : 575 MiB (46%)
Writing library                          : x264 core 148 r2717 0d2410d
Encoding settings                        : cabac=1 / ref=3 / deblock=1:0:0 / analyse=0x1:0x111 / me=umh / subme=10 / psy=1 / psy_rd=1.00:0.00 / mixed_ref=1 / me_range=24 / chroma_me=1 / trellis=2 / 8x8dct=0 / cqm=0 / deadzone=21,11 / fast_pskip=1 / chroma_qp_offset=-2 / threads=8 / lookahead_threads=1 / sliced_threads=0 / nr=0 / decimate=1 / interlaced=0 / bluray_compat=0 / stitchable=1 / constrained_intra=0 / bframes=2 / b_pyramid=0 / b_adapt=2 / b_bias=0 / direct=3 / weightb=1 / open_gop=0 / weightp=2 / keyint=250 / keyint_min=24 / scenecut=0 / intra_refresh=0 / rc_lookahead=48 / rc=2pass / mbtree=1 / bitrate=5110 / ratetol=1.0 / qcomp=0.50 / qpmin=6 / qpmax=51 / qpstep=4 / cplxblur=20.0 / qblur=0.5 / vbv_maxrate=7665 / vbv_bufsize=10220 / nal_hrd=vbr / filler=0 / ip_ratio=1.40 / aq=1:1.00
Default                                  : Yes
Forced                                   : No

Audio #1
ID                                       : 2
Format                                   : E-AC-3
Format/Info                              : Enhanced AC-3
Commercial name                          : Dolby Digital Plus
Codec ID                                 : A_EAC3
Duration                                 : 16 min 6 s
Bit rate mode                            : Constant
Bit rate                                 : 640 kb/s
Channel(s)                               : 6 channels
Channel layout                           : L R C LFE Ls Rs
Sampling rate                            : 48.0 kHz
Frame rate                               : 31.250 FPS (1536 SPF)
Compression mode                         : Lossy
Stream size                              : 73.7 MiB (6%)
Language                                 : Japanese
Service kind                             : Complete Main
Default                                  : Yes
Forced                                   : No

Audio #2
ID                                       : 3
Format                                   : E-AC-3
Format/Info                              : Enhanced AC-3
Commercial name                          : Dolby Digital Plus
Codec ID                                 : A_EAC3
Duration                                 : 16 min 6 s
Bit rate mode                            : Constant
Bit rate                                 : 640 kb/s
Channel(s)                               : 6 channels
Channel layout                           : L R C LFE Ls Rs
Sampling rate                            : 48.0 kHz
Frame rate                               : 31.250 FPS (1536 SPF)
Compression mode                         : Lossy
Stream size                              : 73.7 MiB (6%)
Title                                    : Audio Description
Language                                 : Japanese
Service kind                             : Complete Main
Default                                  : No
Forced                                   : No

Audio #3
ID                                       : 4
Format                                   : E-AC-3
Format/Info                              : Enhanced AC-3
Commercial name                          : Dolby Digital Plus
Codec ID                                 : A_EAC3
Duration                                 : 16 min 6 s
Bit rate mode                            : Constant
Bit rate                                 : 640 kb/s
Channel(s)                               : 6 channels
Channel layout                           : L R C LFE Ls Rs
Sampling rate                            : 48.0 kHz
Frame rate                               : 31.250 FPS (1536 SPF)
Compression mode                         : Lossy
Stream size                              : 73.7 MiB (6%)
Language                                 : English
Service kind                             : Complete Main
Default                                  : No
Forced                                   : No

Audio #4
ID                                       : 5
Format                                   : E-AC-3
Format/Info                              : Enhanced AC-3
Commercial name                          : Dolby Digital Plus
Codec ID                                 : A_EAC3
Duration                                 : 16 min 6 s
Bit rate mode                            : Constant
Bit rate                                 : 640 kb/s
Channel(s)                               : 6 channels
Channel layout                           : L R C LFE Ls Rs
Sampling rate                            : 48.0 kHz
Frame rate                               : 31.250 FPS (1536 SPF)
Compression mode                         : Lossy
Stream size                              : 73.7 MiB (6%)
Language                                 : German
Service kind                             : Complete Main
Default                                  : No
Forced                                   : No

Audio #5
ID                                       : 6
Format                                   : E-AC-3
Format/Info                              : Enhanced AC-3
Commercial name                          : Dolby Digital Plus
Codec ID                                 : A_EAC3
Duration                                 : 16 min 6 s
Bit rate mode                            : Constant
Bit rate                                 : 640 kb/s
Channel(s)                               : 6 channels
Channel layout                           : L R C LFE Ls Rs
Sampling rate                            : 48.0 kHz
Frame rate                               : 31.250 FPS (1536 SPF)
Compression mode                         : Lossy
Stream size                              : 73.7 MiB (6%)
Language                                 : Spanish
Service kind                             : Complete Main
Default                                  : No
Forced                                   : No

Audio #6
ID                                       : 7
Format                                   : E-AC-3
Format/Info                              : Enhanced AC-3
Commercial name                          : Dolby Digital Plus
Codec ID                                 : A_EAC3
Duration                                 : 16 min 6 s
Bit rate mode                            : Constant
Bit rate                                 : 640 kb/s
Channel(s)                               : 6 channels
Channel layout                           : L R C LFE Ls Rs
Sampling rate                            : 48.0 kHz
Frame rate                               : 31.250 FPS (1536 SPF)
Compression mode                         : Lossy
Stream size                              : 73.7 MiB (6%)
Title                                    : European
Language                                 : Spanish
Service kind                             : Complete Main
Default                                  : No
Forced                                   : No

Audio #7
ID                                       : 8
Format                                   : E-AC-3
Format/Info                              : Enhanced AC-3
Commercial name                          : Dolby Digital Plus
Codec ID                                 : A_EAC3
Duration                                 : 16 min 6 s
Bit rate mode                            : Constant
Bit rate                                 : 640 kb/s
Channel(s)                               : 6 channels
Channel layout                           : L R C LFE Ls Rs
Sampling rate                            : 48.0 kHz
Frame rate                               : 31.250 FPS (1536 SPF)
Compression mode                         : Lossy
Stream size                              : 73.7 MiB (6%)
Language                                 : French
Service kind                             : Complete Main
Default                                  : No
Forced                                   : No

Audio #8
ID                                       : 9
Format                                   : E-AC-3
Format/Info                              : Enhanced AC-3
Commercial name                          : Dolby Digital Plus
Codec ID                                 : A_EAC3
Duration                                 : 16 min 6 s
Bit rate mode                            : Constant
Bit rate                                 : 640 kb/s
Channel(s)                               : 6 channels
Channel layout                           : L R C LFE Ls Rs
Sampling rate                            : 48.0 kHz
Frame rate                               : 31.250 FPS (1536 SPF)
Compression mode                         : Lossy
Stream size                              : 73.7 MiB (6%)
Language                                 : Italian
Service kind                             : Complete Main
Default                                  : No
Forced                                   : No

Audio #9
ID                                       : 10
Format                                   : E-AC-3
Format/Info                              : Enhanced AC-3
Commercial name                          : Dolby Digital Plus
Codec ID                                 : A_EAC3
Duration                                 : 16 min 6 s
Bit rate mode                            : Constant
Bit rate                                 : 640 kb/s
Channel(s)                               : 6 channels
Channel layout                           : L R C LFE Ls Rs
Sampling rate                            : 48.0 kHz
Frame rate                               : 31.250 FPS (1536 SPF)
Compression mode                         : Lossy
Stream size                              : 73.7 MiB (6%)
Title                                    : Cantonese
Language                                 : Chinese
Service kind                             : Complete Main
Default                                  : No
Forced                                   : No

Text #1
ID                                       : 11
Format                                   : UTF-8
Codec ID                                 : S_TEXT/UTF8
Codec ID/Info                            : UTF-8 Plain Text
Duration                                 : 15 min 27 s
Bit rate                                 : 65 b/s
Count of elements                        : 254
Stream size                              : 7.46 KiB (0%)
Language                                 : English
Default                                  : Yes
Forced                                   : No

Text #2
ID                                       : 12
Format                                   : UTF-8
Codec ID                                 : S_TEXT/UTF8
Codec ID/Info                            : UTF-8 Plain Text
Duration                                 : 15 min 33 s
Bit rate                                 : 102 b/s
Count of elements                        : 256
Stream size                              : 11.7 KiB (0%)
Language                                 : Arabic
Default                                  : No
Forced                                   : No

Text #3
ID                                       : 13
Format                                   : UTF-8
Codec ID                                 : S_TEXT/UTF8
Codec ID/Info                            : UTF-8 Plain Text
Duration                                 : 15 min 33 s
Bit rate                                 : 64 b/s
Count of elements                        : 259
Stream size                              : 7.37 KiB (0%)
Language                                 : Czech
Default                                  : No
Forced                                   : No

Text #4
ID                                       : 14
Format                                   : UTF-8
Codec ID                                 : S_TEXT/UTF8
Codec ID/Info                            : UTF-8 Plain Text
Duration                                 : 15 min 6 s
Bit rate                                 : 63 b/s
Count of elements                        : 191
Stream size                              : 7.08 KiB (0%)
Language                                 : Danish
Default                                  : No
Forced                                   : No

Text #5
ID                                       : 15
Format                                   : UTF-8
Codec ID                                 : S_TEXT/UTF8
Codec ID/Info                            : UTF-8 Plain Text
Duration                                 : 15 min 33 s
Bit rate                                 : 64 b/s
Count of elements                        : 226
Stream size                              : 7.34 KiB (0%)
Language                                 : German
Default                                  : No
Forced                                   : No

Text #6
ID                                       : 16
Format                                   : UTF-8
Codec ID                                 : S_TEXT/UTF8
Codec ID/Info                            : UTF-8 Plain Text
Duration                                 : 15 min 4 s
Bit rate                                 : 105 b/s
Count of elements                        : 261
Stream size                              : 11.7 KiB (0%)
Language                                 : Greek
Default                                  : No
Forced                                   : No

Text #7
ID                                       : 17
Format                                   : UTF-8
Codec ID                                 : S_TEXT/UTF8
Codec ID/Info                            : UTF-8 Plain Text
Duration                                 : 15 min 33 s
Bit rate                                 : 65 b/s
Count of elements                        : 261
Stream size                              : 7.42 KiB (0%)
Language                                 : Spanish
Default                                  : No
Forced                                   : No

Text #8
ID                                       : 18
Format                                   : UTF-8
Codec ID                                 : S_TEXT/UTF8
Codec ID/Info                            : UTF-8 Plain Text
Duration                                 : 15 min 33 s
Bit rate                                 : 73 b/s
Count of elements                        : 260
Stream size                              : 8.33 KiB (0%)
Title                                    : European
Language                                 : Spanish
Default                                  : No
Forced                                   : No

Text #9
ID                                       : 19
Format                                   : UTF-8
Codec ID                                 : S_TEXT/UTF8
Codec ID/Info                            : UTF-8 Plain Text
Duration                                 : 15 min 6 s
Bit rate                                 : 67 b/s
Count of elements                        : 192
Stream size                              : 7.51 KiB (0%)
Language                                 : Finnish
Default                                  : No
Forced                                   : No

Text #10
ID                                       : 20
Format                                   : UTF-8
Codec ID                                 : S_TEXT/UTF8
Codec ID/Info                            : UTF-8 Plain Text
Duration                                 : 15 min 33 s
Bit rate                                 : 69 b/s
Count of elements                        : 260
Stream size                              : 7.89 KiB (0%)
Language                                 : French
Default                                  : No
Forced                                   : No

Text #11
ID                                       : 21
Format                                   : UTF-8
Codec ID                                 : S_TEXT/UTF8
Codec ID/Info                            : UTF-8 Plain Text
Duration                                 : 15 min 3 s
Bit rate                                 : 93 b/s
Count of elements                        : 258
Stream size                              : 10.3 KiB (0%)
Language                                 : Hebrew
Default                                  : No
Forced                                   : No

Text #12
ID                                       : 22
Format                                   : UTF-8
Codec ID                                 : S_TEXT/UTF8
Codec ID/Info                            : UTF-8 Plain Text
Duration                                 : 15 min 33 s
Bit rate                                 : 56 b/s
Count of elements                        : 262
Stream size                              : 6.48 KiB (0%)
Language                                 : Hungarian
Default                                  : No
Forced                                   : No

Text #13
ID                                       : 23
Format                                   : UTF-8
Codec ID                                 : S_TEXT/UTF8
Codec ID/Info                            : UTF-8 Plain Text
Duration                                 : 15 min 33 s
Bit rate                                 : 59 b/s
Count of elements                        : 262
Stream size                              : 6.75 KiB (0%)
Language                                 : Indonesian
Default                                  : No
Forced                                   : No

Text #14
ID                                       : 24
Format                                   : UTF-8
Codec ID                                 : S_TEXT/UTF8
Codec ID/Info                            : UTF-8 Plain Text
Duration                                 : 15 min 33 s
Bit rate                                 : 63 b/s
Count of elements                        : 257
Stream size                              : 7.20 KiB (0%)
Language                                 : Italian
Default                                  : No
Forced                                   : No

Text #15
ID                                       : 25
Format                                   : UTF-8
Codec ID                                 : S_TEXT/UTF8
Codec ID/Info                            : UTF-8 Plain Text
Duration                                 : 15 min 30 s
Bit rate                                 : 99 b/s
Count of elements                        : 264
Stream size                              : 11.3 KiB (0%)
Language                                 : Japanese
Default                                  : No
Forced                                   : No

Text #16
ID                                       : 26
Format                                   : UTF-8
Codec ID                                 : S_TEXT/UTF8
Codec ID/Info                            : UTF-8 Plain Text
Duration                                 : 15 min 33 s
Bit rate                                 : 79 b/s
Count of elements                        : 258
Stream size                              : 9.09 KiB (0%)
Language                                 : Korean
Default                                  : No
Forced                                   : No

Text #17
ID                                       : 27
Format                                   : UTF-8
Codec ID                                 : S_TEXT/UTF8
Codec ID/Info                            : UTF-8 Plain Text
Duration                                 : 15 min 6 s
Bit rate                                 : 69 b/s
Count of elements                        : 191
Stream size                              : 7.70 KiB (0%)
Language                                 : Norwegian
Default                                  : No
Forced                                   : No

Text #18
ID                                       : 28
Format                                   : UTF-8
Codec ID                                 : S_TEXT/UTF8
Codec ID/Info                            : UTF-8 Plain Text
Duration                                 : 15 min 33 s
Bit rate                                 : 57 b/s
Count of elements                        : 250
Stream size                              : 6.58 KiB (0%)
Language                                 : Dutch
Default                                  : No
Forced                                   : No

Text #19
ID                                       : 29
Format                                   : UTF-8
Codec ID                                 : S_TEXT/UTF8
Codec ID/Info                            : UTF-8 Plain Text
Duration                                 : 15 min 33 s
Bit rate                                 : 59 b/s
Count of elements                        : 261
Stream size                              : 6.76 KiB (0%)
Language                                 : Polish
Default                                  : No
Forced                                   : No

Text #20
ID                                       : 30
Format                                   : UTF-8
Codec ID                                 : S_TEXT/UTF8
Codec ID/Info                            : UTF-8 Plain Text
Duration                                 : 15 min 33 s
Bit rate                                 : 62 b/s
Count of elements                        : 257
Stream size                              : 7.13 KiB (0%)
Language                                 : Portuguese
Default                                  : No
Forced                                   : No

Text #21
ID                                       : 31
Format                                   : UTF-8
Codec ID                                 : S_TEXT/UTF8
Codec ID/Info                            : UTF-8 Plain Text
Duration                                 : 15 min 33 s
Bit rate                                 : 63 b/s
Count of elements                        : 262
Stream size                              : 7.21 KiB (0%)
Title                                    : Brazilian
Language                                 : Portuguese
Default                                  : No
Forced                                   : No

Text #22
ID                                       : 32
Format                                   : UTF-8
Codec ID                                 : S_TEXT/UTF8
Codec ID/Info                            : UTF-8 Plain Text
Duration                                 : 15 min 33 s
Bit rate                                 : 67 b/s
Count of elements                        : 261
Stream size                              : 7.65 KiB (0%)
Language                                 : Romanian
Default                                  : No
Forced                                   : No

Text #23
ID                                       : 33
Format                                   : UTF-8
Codec ID                                 : S_TEXT/UTF8
Codec ID/Info                            : UTF-8 Plain Text
Duration                                 : 15 min 33 s
Bit rate                                 : 110 b/s
Count of elements                        : 258
Stream size                              : 12.6 KiB (0%)
Language                                 : Russian
Default                                  : No
Forced                                   : No

Text #24
ID                                       : 34
Format                                   : UTF-8
Codec ID                                 : S_TEXT/UTF8
Codec ID/Info                            : UTF-8 Plain Text
Duration                                 : 15 min 6 s
Bit rate                                 : 69 b/s
Count of elements                        : 190
Stream size                              : 7.64 KiB (0%)
Language                                 : Swedish
Default                                  : No
Forced                                   : No

Text #25
ID                                       : 35
Format                                   : UTF-8
Codec ID                                 : S_TEXT/UTF8
Codec ID/Info                            : UTF-8 Plain Text
Duration                                 : 15 min 33 s
Bit rate                                 : 158 b/s
Count of elements                        : 262
Stream size                              : 18.0 KiB (0%)
Language                                 : Thai
Default                                  : No
Forced                                   : No

Text #26
ID                                       : 36
Format                                   : UTF-8
Codec ID                                 : S_TEXT/UTF8
Codec ID/Info                            : UTF-8 Plain Text
Duration                                 : 15 min 33 s
Bit rate                                 : 64 b/s
Count of elements                        : 258
Stream size                              : 7.39 KiB (0%)
Language                                 : Turkish
Default                                  : No
Forced                                   : No

Text #27
ID                                       : 37
Format                                   : UTF-8
Codec ID                                 : S_TEXT/UTF8
Codec ID/Info                            : UTF-8 Plain Text
Duration                                 : 15 min 33 s
Bit rate                                 : 71 b/s
Count of elements                        : 262
Stream size                              : 8.19 KiB (0%)
Language                                 : Vietnamese
Default                                  : No
Forced                                   : No

Text #28
ID                                       : 38
Format                                   : UTF-8
Codec ID                                 : S_TEXT/UTF8
Codec ID/Info                            : UTF-8 Plain Text
Duration                                 : 15 min 33 s
Bit rate                                 : 65 b/s
Count of elements                        : 259
Stream size                              : 7.43 KiB (0%)
Title                                    : Simplified
Language                                 : Chinese
Default                                  : No
Forced                                   : No

Text #29
ID                                       : 39
Format                                   : UTF-8
Codec ID                                 : S_TEXT/UTF8
Codec ID/Info                            : UTF-8 Plain Text
Duration                                 : 15 min 33 s
Bit rate                                 : 67 b/s
Count of elements                        : 259
Stream size                              : 7.74 KiB (0%)
Title                                    : Traditional
Language                                 : Chinese
Default                                  : No
Forced                                   : No

Other Files in this Torrent
Aggretsuko.S03E05.An.Urchin.in.the.Desert.1080p.WEB-DL.DDP5.1.H.264-aKraa.mkv
beta
Anime DDL+NZB mirror
Current Time: 05/12/2021 10:21



About/FAQs

Discord