Wolfs.Rain.S01.720p.BluRay.x264-ANiHLS


This torrent has not been fetched due to skipping policy - please see source links for more information.
Source LinksNyaa | Torrent Download | Magnet Link (32.23 GB)
Date Submitted18/09/2019 17:53
Series (!)Wolf's Rain
Comment## Brief InformationEncoder: HLSVideo: 960x720, 23.976 FPS, x264 High@L4.1, ~5,295 kB/sAudio 1: Japanese AC3 2.0, 640 kB/sAudio 2: English AC3 5.1, 640 kB/sSubtitle 1: English (Dialogue)Subtitle 2: English (Signs/Titles)Images: http://www.mediafire.com/folder/w3e80y3btr14r/Wolf's_RainPlease seed until you have a share ratio of at least 2.0. Here's the [BDRip release](https://nyaa.si/view/1177006).## MediaInfo```GeneralComplete name : ...\Wolfs.Rain.S01.720p.BluRay.x264-ANiHLS\anihls-wolrai.s01e01.720p.bluray.mkvFormat : MatroskaFormat version : Version 4File size : 1.07 GiBDuration : 23 min 22 sOverall bit rate : 6 577 kb/sEncoded date : UTC 2019-08-16 08:12:14Writing application : mkvmerge v9.6.0 ('Slave To Your Mind') 64bitWriting library : libebml v1.3.4 + libmatroska v1.4.5VideoID : 1Format : AVCFormat/Info : Advanced Video CodecFormat profile : High@L4.1Format settings : CABAC / 5 Ref FramesFormat settings, CABAC : YesFormat settings, Reference frames : 5 framesCodec ID : V_MPEG4/ISO/AVCDuration : 23 min 22 sBit rate : 5 295 kb/sWidth : 960 pixelsHeight : 720 pixelsDisplay aspect ratio : 4:3Frame rate mode : ConstantFrame rate : 23.976 (24000/1001) FPSColor space : YUVChroma subsampling : 4:2:0Bit depth : 8 bitsScan type : ProgressiveBits/(Pixel*Frame) : 0.320Stream size : 885 MiB (81%)Writing library : x264 core 157 r2969 d4099ddEncoding settings : cabac=1 / ref=5 / deblock=1:1:1 / analyse=0x3:0x113 / me=umh / subme=7 / psy=1 / psy_rd=0.40:0.00 / mixed_ref=1 / me_range=16 / chroma_me=1 / trellis=2 / 8x8dct=1 / cqm=0 / deadzone=21,11 / fast_pskip=1 / chroma_qp_offset=-2 / threads=18 / lookahead_threads=3 / sliced_threads=0 / nr=0 / decimate=1 / interlaced=0 / bluray_compat=0 / constrained_intra=0 / bframes=3 / b_pyramid=2 / b_adapt=1 / b_bias=0 / direct=3 / weightb=1 / open_gop=0 / weightp=2 / keyint=240 / keyint_min=23 / scenecut=40 / intra_refresh=0 / rc_lookahead=50 / rc=2pass / mbtree=1 / bitrate=5295 / ratetol=1.0 / qcomp=0.60 / qpmin=0 / qpmax=69 / qpstep=4 / cplxblur=20.0 / qblur=0.5 / ip_ratio=1.40 / aq=1:0.60Default : YesForced : NoAudio #1ID : 2Format : AC-3Format/Info : Audio Coding 3Commercial name : Dolby DigitalCodec ID : A_AC3Duration : 23 min 22 sBit rate mode : ConstantBit rate : 640 kb/sChannel(s) : 2 channelsChannel layout : L RSampling rate : 48.0 kHzFrame rate : 31.250 FPS (1536 SPF)Bit depth : 16 bitsCompression mode : LossyStream size : 107 MiB (10%)Language : JapaneseService kind : Complete MainDefault : YesForced : NoAudio #2ID : 3Format : AC-3Format/Info : Audio Coding 3Commercial name : Dolby DigitalCodec ID : A_AC3Duration : 23 min 22 sBit rate mode : ConstantBit rate : 640 kb/sChannel(s) : 6 channelsChannel layout : L R C LFE Ls RsSampling rate : 48.0 kHzFrame rate : 31.250 FPS (1536 SPF)Bit depth : 16 bitsCompression mode : LossyStream size : 107 MiB (10%)Language : EnglishService kind : Complete MainDefault : NoForced : NoText #1ID : 4Format : UTF-8Codec ID : S_TEXT/UTF8Codec ID/Info : UTF-8 Plain TextDuration : 23 min 15 sBit rate : 39 b/sCount of elements : 182Stream size : 6.67 KiB (0%)Language : EnglishDefault : YesForced : NoText #2ID : 5Format : UTF-8Codec ID : S_TEXT/UTF8Codec ID/Info : UTF-8 Plain TextDuration : 1 min 37 sBit rate : 4 b/sCount of elements : 3Stream size : 51.0 Bytes (0%)Language : EnglishDefault : NoForced : NoMenu00:00:00.000 : en:00:00:00.00000:03:11.024 : en:00:03:11.02400:04:41.531 : en:00:04:41.53100:13:04.492 : en:00:13:04.49200:21:46.514 : en:00:21:46.51400:23:06.552 : en:00:23:06.552```
Tracker(s)
udp://tracker.opentrackr.org:1337/announceS: 4L: 1C: 132U: 26d, 7hr, 26min ago
udp://tracker.coppersurfer.tk:6969/announceScrape failedU: 26d, 15hr, 16min ago
udp://exodus.desync.com:6969/announce-
http://nyaa.tracker.wf:7777/announceS: 6L: 5C: 151U: 33d, 20hr, 36min ago
udp://open.stealth.si:80/announceScrape failedU: 26d, 22hr, 11min ago



0 comment(s):
Add new comment
Name:
Comment Type:
Message:Please be aware of the following before commenting:
  • Anime Tosho provides a mirror of torrents and is not the source. Please understand that uploaders/submitters may not read comments here, so you should check the Source Links section near the top of this page if you wish to contact them
  • Expired links do NOT get reuploaded as files are deleted after we process them
  • Uploads are NOT instant, so please wait for them to be processed
  • The entire uploading process is done by a bot which does NOT read any comments, so asking for links will have no effect on when they show up
  • Critical comments are welcome, however note that statements such as "X is crap" or "Y sucks" are NOT criticisms and aren't useful to anyone. Please back such statements up with reasoning to be both informative and demonstrate that you aren't just some whiney kid.
Image Verification:

Our squiggly text game where the aim is to copy the image into the textbox. All characters are upper case, and there are no zeros (0) and ones (1) in the above image. Apparently bots aren't as good as humans at this game.
beta
Anime DDL+NZB mirror
Current Time: 13/11/2019 22:05



About/FAQs