Violet Evergarden Movie English Subbed BDMV


This torrent has not been fetched due to skipping policy - please see source links for more information.
Source LinksNyaa | Torrent Download | Magnet Link (25.02 GB)
Date Submitted16/06/2018 16:32
Series (!)Violet Evergarden
CommentGeneralID : 1 (0x1)Complete name : C:\Users\Diamond and Pearl\Downloads\Violet Evergarden Movie Edition\BDMV\STREAM\00000.m2tsFormat : BDAVFormat/Info : Blu-ray VideoFile size : 24.6 GiBDuration : 1 h 14 minOverall bit rate mode : VariableOverall bit rate : 47.1 Mb/sMaximum Overall bit rate : 35.5 Mb/sVideoID : 4113 (0x1011)Menu ID : 1 (0x1)Format : AVCFormat/Info : Advanced Video CodecFormat profile : High@L4.1Format settings : CABAC / 4 Ref FramesFormat settings, CABAC : YesFormat settings, RefFrames : 4 framesCodec ID : 27Duration : 1 h 14 minBit rate mode : VariableBit rate : 36.0 Mb/sMaximum bit rate : 38.0 Mb/sWidth : 1 920 pixelsHeight : 1 080 pixelsDisplay aspect ratio : 16:9Frame rate : 23.976 (24000/1001) FPSColor space : YUVChroma subsampling : 4:2:0Bit depth : 8 bitsScan type : ProgressiveBits/(Pixel*Frame) : 0.725Stream size : 18.8 GiB (76%)Audio #1ID : 4352 (0x1100)Menu ID : 1 (0x1)Format : PCMFormat settings : Big / SignedMuxing mode : Blu-rayCodec ID : 128Duration : 1 h 14 minBit rate mode : ConstantBit rate : 2 304 kb/sChannel(s) : 2 channelsChannel positions : Front: L RSampling rate : 48.0 kHzBit depth : 24 bitsStream size : 1.20 GiB (5%)Language : JapaneseAudio #2ID : 4353 (0x1101)Menu ID : 1 (0x1)Format : PCMFormat settings : Big / SignedMuxing mode : Blu-rayCodec ID : 128Duration : 1 h 14 minBit rate mode : ConstantBit rate : 6 912 kb/sChannel(s) : 6 channelsChannel positions : Front: L C R, Side: L R, LFESampling rate : 48.0 kHzBit depth : 24 bitsStream size : 3.61 GiB (15%)Language : JapaneseTextID : 4608 (0x1200)Menu ID : 1 (0x1)Format : PGSCodec ID : 144Enjoy the subbed version
Tracker(s)
udp://tracker.openbittorrent.com:80/announce-
udp://tracker.opentrackr.org:1337/announceS: 0L: 5C: 0U: 110d, 17hr, 25min ago
udp://tracker.coppersurfer.tk:6969/announceScrape failedU: 182d, 21hr ago
udp://tracker.leechers-paradise.org:6969/announceS: 0L: 0C: 0U: 10d, 10hr, 20min ago
http://nyaa.tracker.wf:7777/announceS: 0L: 5C: 139U: 62d, 13hr, 50min ago
udp://open.stealth.si:80/announceS: 0L: 4C: 0U: 94d, 18hr, 44min ago



0 comment(s):
Add new comment
Name:
Comment Type:
Message:Please be aware of the following before commenting:
  • Anime Tosho provides a mirror of torrents and is not the source. Please understand that uploaders/submitters may not read comments here, so you should check the Source Links section near the top of this page if you wish to contact them
  • Expired links do NOT get reuploaded as files are deleted after we process them
  • Uploads are NOT instant, so please wait for them to be processed
  • The entire uploading process is done by a bot which does NOT read any comments, so asking for links will have no effect on when they show up
  • Critical comments are welcome, however note that statements such as "X is crap" or "Y sucks" are NOT criticisms and aren't useful to anyone. Please back such statements up with reasoning to be both informative and demonstrate that you aren't just some whiney kid.
Image Verification:

Our squiggly text game where the aim is to copy the image into the textbox. All characters are upper case, and there are no zeros (0) and ones (1) in the above image. Apparently bots aren't as good as humans at this game.
beta
Anime DDL+NZB mirror
Current Time: 17/11/2019 19:40



About/FAQs