[VeloEncodes] Digimon Adventure Zero Two (Dual-Audio) (10-bit) (1080p BDRip) SET 3 of 8


Source LinksNyaa | Torrent Download | Magnet Link (6.441 GB) | NZB | Website
Date Submitted30/03/2020 06:06
Series (!)Digimon Adventure 02
Comment![img](https://images-na.ssl-images-amazon.com/images/I/71qKii9ZjOL._SL1160_.jpg)The third disc from the 15th anniversary Digimon Adventure Zero Two BD Box, in glorious, dual-audio greatness.**MediaInfo (episode 15):**```GeneralUnique ID : 109406712585981237770244633892451125761 (0x524EF7653ECD00B49EFBAABD557A0A01)Complete name : G:\Anime\Digimon Adventure Zero Two (Dual-Audio)\[VeloEncodes] Digimon Adventure Zero Two Episode 15 - Shurimon's Martial Arts (Dual-Audio) (10-bit) (1080p BDRip) [0F3C2B7D].mkvFormat : MatroskaFormat version : Version 4File size : 1.02 GiBDuration : 23 min 6 sOverall bit rate mode : VariableOverall bit rate : 6 326 kb/sEncoded date : UTC 2020-03-29 13:44:50Writing application : mkvmerge v32.0.0 ('Astral Progressions') 64-bitWriting library : libebml v1.3.7 + libmatroska v1.5.0VideoID : 1Format : HEVCFormat/Info : High Efficiency Video CodingCodec ID : V_MPEGH/ISO/HEVCDuration : 23 min 6 sBit rate : 5 202 kb/sWidth : 1 440 pixelsHeight : 1 080 pixelsDisplay aspect ratio : 4:3Frame rate mode : ConstantFrame rate : 23.976 (24000/1001) FPSBits/(Pixel*Frame) : 0.140Stream size : 859 MiB (82%)Title : BDrip By 晨曦@CXRAWDefault : YesForced : NoAudio #1ID : 2Format : FLACFormat/Info : Free Lossless Audio CodecCodec ID : A_FLACDuration : 23 min 6 sBit rate mode : VariableBit rate : 738 kb/sChannel(s) : 2 channelsChannel layout : L RSampling rate : 48.0 kHzFrame rate : 11.719 FPS (4096 SPF)Bit depth : 16 bitsCompression mode : LosslessStream size : 122 MiB (12%)Title : Original Japanese AudioWriting library : libFLAC 1.2.1 (UTC 2007-09-17)Language : JapaneseDefault : NoForced : NoAudio #2ID : 3Format : AC-3Format/Info : Audio Coding 3Commercial name : Dolby DigitalCodec ID : A_AC3Duration : 23 min 5 sBit rate mode : ConstantBit rate : 192 kb/sChannel(s) : 2 channelsChannel layout : L RSampling rate : 48.0 kHzFrame rate : 31.250 FPS (1536 SPF)Bit depth : 16 bitsCompression mode : LossyStream size : 31.7 MiB (3%)Title : Saban English DubLanguage : EnglishService kind : Complete MainDefault : YesForced : NoAudio #3ID : 4Format : AC-3Format/Info : Audio Coding 3Commercial name : Dolby DigitalCodec ID : A_AC3Duration : 23 min 5 sBit rate mode : ConstantBit rate : 192 kb/sChannel(s) : 2 channelsChannel layout : L RSampling rate : 48.0 kHzFrame rate : 31.250 FPS (1536 SPF)Bit depth : 16 bitsCompression mode : LossyStream size : 31.7 MiB (3%)Title : Filipino English DubLanguage : filService kind : Complete MainDefault : NoForced : NoText #1ID : 5Format : ASSCodec ID : S_TEXT/ASSCodec ID/Info : Advanced Sub Station AlphaDuration : 22 min 46 sBit rate : 24 b/sCount of elements : 54Compression mode : LosslessStream size : 4.16 KiB (0%)Title : English SignsLanguage : EnglishDefault : YesForced : NoText #2ID : 6Format : ASSCodec ID : S_TEXT/ASSCodec ID/Info : Advanced Sub Station AlphaDuration : 22 min 46 sBit rate : 129 b/sCount of elements : 315Compression mode : LosslessStream size : 21.6 KiB (0%)Title : English SubsLanguage : EnglishDefault : NoForced : No```**Episodes included in this set:**Episode 15 - Shurimon's Martial ArtsEpisode 16 - Submarimon, Escape From The Bottom Of The SeaEpisode 17 - Odaiba MemorialEpisode 18 - Track Down the Kaiser's Base!Episode 19 - The Synthetic Beast, ChimeramonEpisode 20 - Supreme Evolution! Golden MagnamonEpisode 21 - Goodbye, Ken-chan...**Further release information:**Video and original Japanese audio by CXRAWEnglish and Filipino English audio by chillock/Out Of ControlSubs by PositronCannon*Enjoy, and don't forget to seed!***Join the Telegram channel for more releases!**https://t.me/veloencodesreleases
Tracker(s)
udp://tracker.opentrackr.org:1337/announceS: 4L: 1C: 124U: 26d, 18hr, 56min ago
udp://tracker.coppersurfer.tk:6969/announceScrape failedU: 26d, 18hr, 55min ago
udp://exodus.desync.com:6969/announce-
http://nyaa.tracker.wf:7777/announceS: 3L: 1C: 154U: 38d, 15hr, 50min ago
udp://open.stealth.si:80/announceS: 4L: 1C: 141U: 26d, 18hr, 2min ago
Files
1.021 GB
915.8 MB
873.6 MB
1.090 GB
869.6 MB
838.7 MB
936.1 MB
SubtitlesAll Attachments



0 comment(s):
Add new comment
Name:
Comment Type:
Message:Please be aware of the following before commenting:
  • Anime Tosho provides a mirror of torrents and is not the source. Please understand that uploaders/submitters may not read comments here, so you should check the Source Links section near the top of this page if you wish to contact them
  • Expired links do NOT get reuploaded as files are deleted after we process them
  • Uploads are NOT instant, so please wait for them to be processed
  • The entire uploading process is done by a bot which does NOT read any comments, so asking for links will have no effect on when they show up
  • Critical comments are welcome, however note that statements such as "X is crap" or "Y sucks" are NOT criticisms and aren't useful to anyone. Please back such statements up with reasoning to be both informative and demonstrate that you aren't just some whiney kid.
Image Verification:

Our squiggly text game where the aim is to copy the image into the textbox. All characters are upper case, and there are no zeros (0) and ones (1) in the above image. Apparently bots aren't as good as humans at this game.
beta
Anime DDL+NZB mirror
Current Time: 25/05/2020 21:30



About/FAQs