[VeloEncodes] Digimon Adventure Zero Two (Dual-Audio) (10-bit) (1080p BDRip) SET 2 of 8


Source LinksNyaa | Torrent Download | Magnet Link (6.452 GB) | NZB | Website
Date Submitted25/03/2020 13:26
Series (!)Digimon Adventure 02
Comment![img](https://images-na.ssl-images-amazon.com/images/I/71qKii9ZjOL._SL1160_.jpg)The second disc from the 15th anniversary Digimon Adventure Zero Two BD Box in glorious, dual-audio greatness.**MediaInfo (episode 8):**```GeneralUnique ID : 172645687074393056437316938747885375654 (0x81E2598FCEE2C7E5E59D430D14F7D0A6)Complete name : G:\Anime\Digimon Adventure Zero Two (Dual-Audio)\[VeloEncodes] Digimon Adventure Zero Two Episode 08 - The Digimon Kaiser's Loneliness (Dual-Audio) (10-bit) (1080p BDRip) v1.mkvFormat : MatroskaFormat version : Version 4File size : 943 MiBDuration : 23 min 8 sOverall bit rate mode : VariableOverall bit rate : 5 697 kb/sEncoded date : UTC 2020-03-25 08:56:31Writing application : mkvmerge v32.0.0 ('Astral Progressions') 64-bitWriting library : libebml v1.3.7 + libmatroska v1.5.0VideoID : 1Format : HEVCFormat/Info : High Efficiency Video CodingCodec ID : V_MPEGH/ISO/HEVCDuration : 23 min 5 sBit rate : 4 612 kb/sWidth : 1 440 pixelsHeight : 1 080 pixelsDisplay aspect ratio : 4:3Frame rate mode : ConstantFrame rate : 23.976 (24000/1001) FPSBits/(Pixel*Frame) : 0.124Stream size : 762 MiB (81%)Title : BDrip By 晨曦@CXRAWDefault : YesForced : NoAudio #1ID : 2Format : FLACFormat/Info : Free Lossless Audio CodecCodec ID : A_FLACDuration : 23 min 5 sBit rate mode : VariableBit rate : 710 kb/sChannel(s) : 2 channelsChannel layout : L RSampling rate : 48.0 kHzFrame rate : 11.719 FPS (4096 SPF)Bit depth : 16 bitsCompression mode : LosslessStream size : 117 MiB (12%)Title : Original Japanese AudioWriting library : libFLAC 1.2.1 (UTC 2007-09-17)Language : JapaneseDefault : NoForced : NoAudio #2ID : 3Format : AC-3Format/Info : Audio Coding 3Commercial name : Dolby DigitalCodec ID : A_AC3Duration : 23 min 8 sBit rate mode : ConstantBit rate : 192 kb/sChannel(s) : 2 channelsChannel layout : L RSampling rate : 48.0 kHzFrame rate : 31.250 FPS (1536 SPF)Bit depth : 16 bitsCompression mode : LossyStream size : 31.8 MiB (3%)Title : Saban English DubLanguage : EnglishService kind : Complete MainDefault : YesForced : NoAudio #3ID : 4Format : AC-3Format/Info : Audio Coding 3Commercial name : Dolby DigitalCodec ID : A_AC3Duration : 23 min 8 sBit rate mode : ConstantBit rate : 192 kb/sChannel(s) : 2 channelsChannel layout : L RSampling rate : 48.0 kHzFrame rate : 31.250 FPS (1536 SPF)Bit depth : 16 bitsCompression mode : LossyStream size : 31.8 MiB (3%)Title : Filipino English DubLanguage : filService kind : Complete MainDefault : NoForced : NoText #1ID : 5Format : ASSCodec ID : S_TEXT/ASSCodec ID/Info : Advanced Sub Station AlphaDuration : 22 min 50 sBit rate : 25 b/sCount of elements : 56Compression mode : LosslessStream size : 4.31 KiB (0%)Title : English SignsLanguage : EnglishDefault : YesForced : NoText #2ID : 6Format : ASSCodec ID : S_TEXT/ASSCodec ID/Info : Advanced Sub Station AlphaDuration : 22 min 50 sBit rate : 154 b/sCount of elements : 364Compression mode : LosslessStream size : 25.9 KiB (0%)Title : English SubsLanguage : EnglishDefault : NoForced : No```**Episodes included in this set:**Episode 8 - The Digimon Kaiser's LonelinessEpisode 9 - Overdrive of the Evil Ring's MagicEpisode 10 - The Enemy Is MetalGreymon!Episode 11 - Blue Thunder, LighdramonEpisode 12 - Duel On The Digimon RanchEpisode 13 - Dagomon's CallEpisode 14 - Shurimon Of The Wind**Release notes:**Episode 8 has an issue with the audio during the recap portion. I am aware of this. This was a problem with the source material. I'll try to fix it in a v2 if I can. Additionally, episode 10 has the recap in Japanese, without any accompanying translations in the signs track. I'll try to fix both these issues in a v2. Also, because I forgot to add the CRC32 hashes to the end of the files before uploading to the seedbox (major screwup on my part), I'm leaving them here. Please append them to the end of the files, after verifying that the hashes match, using a program like RapidCRC.**CRC32 hashes:**Episode 8 - 7AB3B4CEEpisode 9 - 8A16D5C8Episode 10 - 12EB2D81Episode 11 - 57796BC2Episode 12 - 03E12635Episode 13 - 044BE40CEpisode 14 - 7035A34C**Join the Telegram channel for more releases!**https://t.me/veloencodesreleases
Tracker(s)
udp://tracker.opentrackr.org:1337/announceS: 2L: 2C: 53U: 2hr, 1min ago
udp://tracker.coppersurfer.tk:6969/announceScrape failedU: 1d, 22hr, 46min ago
udp://exodus.desync.com:6969/announce-
http://nyaa.tracker.wf:7777/announceS: 4L: 9C: 54U: 2d, 6hr, 8min ago
udp://open.stealth.si:80/announceS: 4L: 8C: 45U: 2d, 5hr, 53min ago
Files
943.3 MB
1.011 GB
987.3 MB
0.989 GB
904.1 MB
758.4 MB
965.2 MB
SubtitlesAll Attachments



0 comment(s):
Add new comment
Name:
Comment Type:
Message:Please be aware of the following before commenting:
  • Anime Tosho provides a mirror of torrents and is not the source. Please understand that uploaders/submitters may not read comments here, so you should check the Source Links section near the top of this page if you wish to contact them
  • Expired links do NOT get reuploaded as files are deleted after we process them
  • Uploads are NOT instant, so please wait for them to be processed
  • The entire uploading process is done by a bot which does NOT read any comments, so asking for links will have no effect on when they show up
  • Critical comments are welcome, however note that statements such as "X is crap" or "Y sucks" are NOT criticisms and aren't useful to anyone. Please back such statements up with reasoning to be both informative and demonstrate that you aren't just some whiney kid.
Image Verification:

Our squiggly text game where the aim is to copy the image into the textbox. All characters are upper case, and there are no zeros (0) and ones (1) in the above image. Apparently bots aren't as good as humans at this game.
beta
Anime DDL+NZB mirror
Current Time: 29/03/2020 17:45



About/FAQs