Valkyrie Drive ~Mermaid~BD720p_(HEVC_10bit_SmoodFlamez)


Source LinksNyaa | Torrent Download | Magnet Link (1.569 GB) | NZB
Date Submitted05/03/2019 13:44
Series (!)Valkyrie Drive: Mermaid
CommentTitleValkyrie Drive-Mermaidhttps://imgur.com/EyySAPrSourceCommieSynopsisNaïve 16-year-old Mamori Tokonome is accustomed to being teased at school for having an unfortunate surname that can also be read as "virgin." However, young Mamori will soon have to get used to being teased in other ways...Kidnapped during gym class, Mamori wakes up only to find herself stranded and under attack on the exotic island of Mermaid. Luckily, enigmatic fellow castaway Mirei Shikishima knows exactly how to take the lead—through a passionate kiss, Mirei unleashes Mamori's Exter transformation abilities, turning the innocent red-head into a battle-ready cutlass through the power of arousal.The duo will need to tap into that power as Mermaid Island is full of potential friends and foes: Charlotte, the sadistic Liberator of an Exter harem; the gluttonous and crafty Meifon; the mysterious but charismatic Akira Hiiragi; and the erotic biker duo Lady Lady. Mamori and Mirei's powerful and intimate embrace is the only way for the pair to ensure their survival on this scandalous islandDetailsOfficial Sites: Official site [Japan]Country: JapanLanguage: JapaneseRelease Date: 10 October 2015 (Japan)Genres: Animation | Action | Adult | RomanceMediaInfoVideoID : 1Format : HEVCFormat/Info : High Efficiency Video CodingFormat profile : Main 10@L6.0@HighCodec ID : V_MPEGH/ISO/HEVCWidth : 1 280 pixelsHeight : 720 pixelsDisplay aspect ratio : 16:9Frame rate mode : ConstantFrame rate : 23.976 (24000/1001) FPSColor space : YUVChroma subsampling : 4:2:0Bit depth : 10 bitsAudioID : 2Format : OpusCodec ID : A_OPUSDuration : 23 min 40 sBit rate : 76.7 kb/sChannel(s) : 2 channelsChannel layout : L RSampling rate : 96.0 kHzFrame rate : 50.001 FPS (1920 SPF)Compression mode : LossyDelay relative to video : 20 msStream size : 13.0 MiB (9%)Default : YesForced : NoTextID : 3Format : ASSCodec ID : S_TEXT/ASSCodec ID/Info : Advanced Sub Station AlphaDuration : 23 min 3 sBit rate : 300 b/sCount of elements : 468Compression mode : LosslessStream size : 50.7 KiB (0%)Language : English=============================================================================Screenshotshttps://imgur.com/fYQHifIhttps://imgur.com/iSOJRxW
Tracker(s)
udp://tracker.openbittorrent.com:80/announce-
udp://tracker.opentrackr.org:1337/announceS: 1L: 2C: 2U: 206d, 18hr, 24min ago
udp://tracker.coppersurfer.tk:6969/announceScrape failedU: 218d, 8hr, 41min ago
udp://exodus.desync.com:6969/announce-
udp://eddie4.nl:6969/announceScrape failedU: 16d, 14hr, 19min ago
udp://tracker.leechers-paradise.org:6969/announceScrape failedU: 146d, 1hr, 37min ago
udp://tracker.zer0day.to:1337/announceScrape failedU: 16d, 21hr, 23min ago
http://nyaa.tracker.wf:7777/announceS: 0L: 4C: 194U: 185d, 3hr, 44min ago
udp://open.stealth.si:80/announceS: 2L: 0C: 2U: 221d, 22hr, 12min ago
Files
141.0 MB
117.3 MB
128.3 MB
128.4 MB
122.6 MB
117.2 MB
118.0 MB
139.3 MB
100.7 MB
115.7 MB
181.5 MB
125.2 MB
71.76 MB
SubtitlesAll Attachments



0 comment(s):
Add new comment
Name:
Comment Type:
Message:Please be aware of the following before commenting:
  • Anime Tosho provides a mirror of torrents and is not the source. Please understand that uploaders/submitters may not read comments here, so you should check the Source Links section near the top of this page if you wish to contact them
  • Expired links do NOT get reuploaded as files are deleted after we process them
  • Uploads are NOT instant, so please wait for them to be processed
  • The entire uploading process is done by a bot which does NOT read any comments, so asking for links will have no effect on when they show up
  • Critical comments are welcome, however note that statements such as "X is crap" or "Y sucks" are NOT criticisms and aren't useful to anyone. Please back such statements up with reasoning to be both informative and demonstrate that you aren't just some whiney kid.
Image Verification:

Our squiggly text game where the aim is to copy the image into the textbox. All characters are upper case, and there are no zeros (0) and ones (1) in the above image. Apparently bots aren't as good as humans at this game.
beta
Anime DDL+NZB mirror
Current Time: 13/07/2020 09:14



About/FAQs