[UM] Iya na Kao Sare Nagara Opantsu Misete Moraitai - 04 [WebRip 1280x720 x264 AAC][Dual-Subs][IND-ENG]


Source LinksNyaa | Torrent Download | Magnet Link (57.39 MB) | NZB
Date Submitted12/08/2018 15:53
SeriesIya na Kao Sarenagara Opantsu Misete Moraitai - Episode 4 (of 6)
Comment#### Iya na Kao Sare Nagara Opantsu Misete Moraitai (I Want You To Make a Disgusted Face and Show Me Your Underwear/Aku Ingin Kau Membuat Wajah Jijik dan Perlihatkan Padaku Celana Dalammu) Episode 04| Video | Audio | Subtitle || :-------------: |:-------------:| :-----:|| 1280x720 x264 8bit | AAC (HE-AAC) | Indonesian (UchiMaki) & English [(Mori-Subs)](https://nyaa.si/view/1065752) |#### DDL => [Here](https://abdul-uchimaki.blogspot.com/2018/08/download-iya-na-kao-sare-nagara-opantsu-misete-moraitai-subtitle-indonesia-and-english.html)![Iya na Kao Sare Nagara Opantsu Misete Moraitai Episode 03](https://3.bp.blogspot.com/-pMayqbVylLQ/W2iH7Af6qjI/AAAAAAAAB78/LE8DhrxX73EGz9YbgKz0iWR0CuKIIw42gCPcBGAYYCw/s1600/%255BUM%255D%2BIya%2Bna%2BKao%2BSare%2BNagara%2BOpantsu%2BMisete%2BMoraitai%2B-%2B04%2B%255BWebRip%2B1280x720%2Bx264%2BAAC%255D.mkv_snapshot_04.06_%255B2018.08.07_00.31.29%255D.png)#### MediaInfo:```GeneralUnique ID : 234597628786619518924379593052859212623 (0xB07DDC1CEAC3BB74F28137DB1291234F)Complete name : [UM] Iya na Kao Sare Nagara Opantsu Misete Moraitai - 04 [WebRip 1280x720 x264 AAC][8593DEEC].mkvFormat : MatroskaFormat version : Version 4 / Version 2File size : 57.4 MiBDuration : 5 min 6 sOverall bit rate : 1 570 kb/sMovie name : [UchiMaki] Iya na Kao Sare Nagara Opantsu Misete Moraitai [WebRip]Writing application : mkvmerge v25.0.0 ('Prog Noir') 64-bitWriting library : libebml v1.3.6 + libmatroska v1.4.9Attachments : Rosario-BoldItalic.ttf / Rosario-Italic.ttf / Rosario-Regular.ttf / Rosario-Bold.ttfVideoID : 1Format : AVCFormat/Info : Advanced Video CodecFormat profile : High@L4.1Format settings, CABAC : YesFormat settings, RefFrames : 9 framesCodec ID : V_MPEG4/ISO/AVCDuration : 5 min 6 sBit rate : 1 433 kb/sWidth : 1 280 pixelsHeight : 720 pixelsDisplay aspect ratio : 16:9Frame rate mode : ConstantFrame rate : 30.000 FPSColor space : YUVChroma subsampling : 4:2:0Bit depth : 8 bitsScan type : ProgressiveBits/(Pixel*Frame) : 0.052Stream size : 52.4 MiB (91%)Title : Iya na Kao Sare Nagara Opantsu Misete Moraitai Episode 04 (WebRip 1280x720 x264 8bit)Writing library : x264 core 155 r2901 7d0ff22Encoding settings : cabac=1 / ref=9 / deblock=1:0:0 / analyse=0x3:0x133 / me=umh / subme=10 / psy=1 / psy_rd=1.00:0.00 / mixed_ref=1 / me_range=24 / chroma_me=1 / trellis=2 / 8x8dct=1 / cqm=0 / deadzone=21,11 / fast_pskip=1 / chroma_qp_offset=-2 / threads=3 / lookahead_threads=1 / sliced_threads=0 / nr=0 / decimate=1 / interlaced=0 / bluray_compat=0 / constrained_intra=0 / bframes=8 / b_pyramid=2 / b_adapt=2 / b_bias=0 / direct=3 / weightb=1 / open_gop=0 / weightp=2 / keyint=300 / keyint_min=30 / scenecut=40 / intra_refresh=0 / rc_lookahead=60 / rc=crf / mbtree=1 / crf=15.0 / qcomp=0.60 / qpmin=0 / qpmax=69 / qpstep=4 / vbv_maxrate=62500 / vbv_bufsize=78125 / crf_max=0.0 / nal_hrd=none / filler=0 / ip_ratio=1.40 / aq=1:1.00Language : JapaneseDefault : YesForced : NoColor range : LimitedColor primaries : BT.709Transfer characteristics : BT.709Matrix coefficients : BT.709AudioID : 2Format : AACFormat/Info : Advanced Audio CodecFormat profile : HE-AAC / LCCodec ID : A_AACDuration : 5 min 6 sBit rate : 128 kb/sChannel(s) : 2 channelsChannel positions : Front: L RSampling rate : 48.0 kHz / 24.0 kHzFrame rate : 23.438 FPS (1024 SPF)Compression mode : LossyStream size : 4.68 MiB (8%)Language : JapaneseDefault : YesForced : NoText #1ID : 3Format : ASSCodec ID : S_TEXT/ASSCodec ID/Info : Advanced Sub Station AlphaDuration : 4 min 32 sBit rate : 140 b/sCount of elements : 62Compression mode : LosslessStream size : 4.68 KiB (0%)Title : [UchiMaki] IndonesianLanguage : IndonesianDefault : YesForced : NoText #2ID : 4Format : ASSCodec ID : S_TEXT/ASSCodec ID/Info : Advanced Sub Station AlphaDuration : 4 min 35 sBit rate : 126 b/sCount of elements : 61Compression mode : LosslessStream size : 4.27 KiB (0%)Title : [Mori] EnglishLanguage : EnglishDefault : NoForced : NoText #3ID : 5Format : ASSCodec ID : S_TEXT/ASSCodec ID/Info : Advanced Sub Station AlphaDuration : 4 min 35 sBit rate : 126 b/sCount of elements : 60Compression mode : LosslessStream size : 4.27 KiB (0%)Title : [Mori]Default : NoForced : No```### Please continue seeding Senpai, if possible 😊
Tracker(s)
udp://tracker.opentrackr.org:1337/announceS: 28L: 1C: 454U: 4hr, 29min ago
udp://tracker.coppersurfer.tk:6969/announceS: 29L: 1C: 511U: 2hr, 59min ago
udp://tracker.leechers-paradise.org:6969/announceS: 28L: 0C: 427U: 1hr, 52min ago
udp://tracker.pirateparty.gr:6969/announceS: 30L: 0C: 515U: 45min ago
http://nyaa.tracker.wf:7777/announceS: 35L: 0C: 582U: 30min ago
udp://open.stealth.si:80/announceS: 28L: 0C: 459U: 2hr, 48min ago
File Name (Size)[UM] Iya na Kao Sare Nagara Opantsu Misete Moraitai - 04 [WebRip 1280x720 x264 AAC][8593DEEC].mkv (57.39 MB)
DownloadClickNUpload | DiskoKosmiko | Go4Up | Jheberg | MultiUp | OpenLoad | Sendspace | SolidFiles | ZippyShare
Screenshots
screenshotscreenshotscreenshotscreenshotscreenshot
SubtitlesAll Attachments | [UchiMaki] Indonesian [ind, ASS], [Mori] English [eng, ASS], [Mori] [und, ASS]



0 comment(s):
Add new comment
Name:
Comment Type:
Message:Please be aware of the following before commenting:
  • Anime Tosho provides a mirror of torrents and is not the source. Please understand that uploaders/submitters may not read comments here, so you should check the Source Links section near the top of this page if you wish to contact them
  • Expired links do NOT get reuploaded as files are deleted after we process them
  • Uploads are NOT instant, so please wait for them to be processed
  • The entire uploading process is done by a bot which does NOT read any comments, so asking for links will have no effect on when they show up
  • Critical comments are welcome, however note that statements such as "X is crap" or "Y sucks" are NOT criticisms and aren't useful to anyone. Please back such statements up with reasoning to be both informative and demonstrate that you aren't just some whiney kid.
Image Verification:

Our squiggly text game where the aim is to copy the image into the textbox. All characters are upper case, and there are no zeros (0) and ones (1) in the above image. Apparently bots aren't as good as humans at this game.
beta
Anime DDL+NZB mirror
Current Time: 18/08/2018 12:38



About/FAQs