[Tess] Kimagure Orange Road TV+Movie+OVA [BD 960x720 AVC AAC]


Source LinksNyaa | Torrent Download | Magnet Link (27.71 GB) | NZB
Date Submitted13/08/2019 18:16
Series (!)Kimagure Orange Road
CommentVideo Source: [US BDMV](https://nyaa.si/view/1164448)Subs: US BDMV PGSAudio Spec: qAAC @ q91___**Screenshot Comparisons***click image to view full-sized image*| # | Encode | BDMV| :-: | :-: | :-: || 1 | [![iicoCQ.th.png](https://i.lensdump.com/i/iicoCQ.th.png)](https://i.lensdump.com/i/iicoCQ.png) | [![iicMhM.th.png](https://i.lensdump.com/i/iicMhM.th.png)](https://i.lensdump.com/i/iicMhM.png)| 2 | [![iicuza.th.png](https://i.lensdump.com/i/iicuza.th.png)](https://i.lensdump.com/i/iicuza.png) | [![iicDwe.th.png](https://i.lensdump.com/i/iicDwe.th.png)](https://i.lensdump.com/i/iicDwe.png)| 3 | [![iicfKx.th.png](https://i.lensdump.com/i/iicfKx.th.png)](https://i.lensdump.com/i/iicfKx.png) | [![iicP1k.th.png](https://i.lensdump.com/i/iicP1k.th.png)](https://i.lensdump.com/i/iicP1k.png)| 4 | [![iicc01.th.png](https://i.lensdump.com/i/iicc01.th.png)](https://i.lensdump.com/i/iicc01.png) | [![iicFfH.th.png](https://i.lensdump.com/i/iicFfH.th.png)](https://i.lensdump.com/i/iicFfH.png)*Note: screenshots were upscaled to 1080p and losslessly capped through mpv___**Mediainfo**>General>Unique ID : 52016599506118092240197218985400065873 (0x2722085C5DDC47C5E05D020EC4FBDF51)>Complete name : [Tess] Kimagure Orange Road - 01 [BD 960x720 AVC AAC][F10C9556].mkv>Format : Matroska>Format version : Version 4>File size : 442 MiB>Duration : 25 min 37 s>Overall bit rate : 2 413 kb/s>Encoded date : UTC 2019-08-12 19:03:06>Writing application : mkvmerge v35.0.0 ('All The Love In The World') 64-bit>Writing library : libebml v1.3.9 + libmatroska v1.5.2>>Video>ID : 1>Format : AVC>Format/Info : Advanced Video Codec>Format profile : High 4:4:4 Predictive@L5.1>Format settings : CABAC / 16 Ref Frames>Format settings, CABAC : Yes>Format settings, Reference frames : 16 frames>Codec ID : V_MPEG4/ISO/AVC>Duration : 25 min 37 s>Bit rate : 2 295 kb/s>Width : 960 pixels>Height : 720 pixels>Display aspect ratio : 4:3>Frame rate mode : Constant>Frame rate : 23.976 (24000/1001) FPS>Chroma subsampling : 4:4:4>Bit depth : 10 bits>Scan type : Progressive>Bits/(Pixel*Frame) : 0.138>Stream size : 421 MiB (95%)>Writing library : x264 core 157 r2969 d4099dd>Encoding settings : cabac=1 / ref=16 / deblock=1:-2:-2 / analyse=0x3:0x133 / me=umh / subme=11 / psy=1 / psy_rd=1.00:0.00 / mixed_ref=1 / me_range=32 / chroma_me=1 / trellis=2 / 8x8dct=1 / cqm=0 / deadzone=21,11 / fast_pskip=0 / chroma_qp_offset=4 / threads=12 / lookahead_threads=6 / sliced_threads=0 / slices=4 / nr=0 / decimate=1 / interlaced=0 / bluray_compat=0 / constrained_intra=0 / bframes=16 / b_pyramid=2 / b_adapt=2 / b_bias=0 / direct=3 / weightb=1 / open_gop=0 / weightp=2 / keyint=250 / keyint_min=23 / scenecut=40 / intra_refresh=0 / rc_lookahead=250 / rc=crf / mbtree=1 / crf=20.0 / qcomp=0.60 / qpmin=0 / qpmax=69 / qpstep=4 / vbv_maxrate=720000 / vbv_bufsize=720000 / crf_max=0.0 / nal_hrd=none / filler=0 / ip_ratio=1.40 / aq=1:1.00>Default : Yes>Forced : No>>Audio>ID : 2>Format : AAC LC>Format/Info : Advanced Audio Codec Low Complexity>Codec ID : A_AAC-2>Duration : 25 min 37 s>Bit rate : 102 kb/s>Channel(s) : 2 channels>Channel layout : L R>Sampling rate : 48.0 kHz>Frame rate : 46.875 FPS (1024 SPF)>Compression mode : Lossy>Delay relative to video : 20 ms>Stream size : 18.7 MiB (4%)>Language : Japanese>Default : Yes>Forced : No>>Text>ID : 3>Format : PGS>Muxing mode : zlib>Codec ID : S_HDMV/PGS>Codec ID/Info : Picture based subtitle format used on BDs/HD-DVDs>Duration : 25 min 32 s>Bit rate : 30.7 kb/s>Count of elements : 589>Stream size : 5.61 MiB (1%)>Language : English>Default : Yes>Forced : No>>Menu>00:00:00.000 : :Chapter 01>00:00:15.015 : :Chapter 02>00:01:58.118 : :Chapter 03>00:12:09.729 : :Chapter 04>00:23:47.926 : :Chapter 05>00:25:09.007 : :Chapter 06>>
Tracker(s)
udp://tracker.opentrackr.org:1337/announceS: 3L: 3C: 128U: 92d, 1hr, 44min ago
udp://tracker.coppersurfer.tk:6969/announceScrape failedU: 95d, 7hr, 20min ago
udp://exodus.desync.com:6969/announce-
udp://tracker.leechers-paradise.org:6969/announceS: 1L: 1C: 1U: 10d, 8hr, 34min ago
http://nyaa.tracker.wf:7777/announceS: 3L: 0C: 169U: 88d, 2hr, 42min ago
udp://open.stealth.si:80/announceS: 3L: 3C: 124U: 91d, 19hr, 7min ago
Files
442.3 MB
487.0 MB
472.9 MB
452.4 MB
375.5 MB
380.8 MB
493.5 MB
430.4 MB
533.5 MB
593.5 MB
440.4 MB
520.5 MB
576.0 MB
525.6 MB
620.6 MB
597.8 MB
532.7 MB
491.9 MB
608.4 MB
619.9 MB
683.9 MB
643.1 MB
569.3 MB
550.6 MB
574.2 MB
604.9 MB
632.8 MB
612.0 MB
561.7 MB
533.3 MB
630.0 MB
678.8 MB
633.0 MB
617.5 MB
516.5 MB
610.5 MB
526.3 MB
443.6 MB
419.4 MB
349.5 MB
345.8 MB
392.9 MB
328.2 MB
340.4 MB
341.7 MB
414.1 MB
432.4 MB
402.7 MB
765.1 MB
949.5 MB
659.4 MB
270.3 MB
238.8 MB
205.2 MB
225.6 MB
237.3 MB
242.2 MB
SubtitlesAll Attachments



1 comment(s):
13/08/2019 20:33 — Anonymous
I'd like this, if we can.
Add new comment
Name:
Comment Type:
Message:Please be aware of the following before commenting:
  • Anime Tosho provides a mirror of torrents and is not the source. Please understand that uploaders/submitters may not read comments here, so you should check the Source Links section near the top of this page if you wish to contact them
  • Expired links do NOT get reuploaded as files are deleted after we process them
  • Uploads are NOT instant, so please wait for them to be processed
  • The entire uploading process is done by a bot which does NOT read any comments, so asking for links will have no effect on when they show up
  • Critical comments are welcome, however note that statements such as "X is crap" or "Y sucks" are NOT criticisms and aren't useful to anyone. Please back such statements up with reasoning to be both informative and demonstrate that you aren't just some whiney kid.
Image Verification:

Our squiggly text game where the aim is to copy the image into the textbox. All characters are upper case, and there are no zeros (0) and ones (1) in the above image. Apparently bots aren't as good as humans at this game.
beta
Anime DDL+NZB mirror
Current Time: 09/12/2019 10:49



About/FAQs