Sword.Art.Online.Ordinal.Scale.2017.1080p.Blu-Ray.10-Bit.Dual-Audio.DTS-HD.x265-iAHD


Source LinksNyaa | Torrent Download | Magnet Link (14.49 GB) | NZB
Date Submitted09/12/2018 17:30
Series (!)Gekijouban Sword Art Online: Ordinal Scale - Complete Movie
CommentVideoID : 1Format : HEVCFormat/Info : High Efficiency Video CodingFormat profile : Main 10@L5@MainCodec ID : V_MPEGH/ISO/HEVCDuration : 2 h 0 minBit rate : 8 799 kb/sWidth : 1 920 pixelsHeight : 1 080 pixelsDisplay aspect ratio : 16:9Frame rate mode : ConstantFrame rate : 23.976 (24000/1001) FPSColor space : YUVChroma subsampling : 4:2:0Bit depth : 10 bitsBits/(Pixel*Frame) : 0.177Stream size : 7.39 GiB (54%)Writing library : x265 2.6:[Windows][GCC 7.3.0][64 bit] 10bitEncoding settings : cpuid=1173503 / frame-threads=4 / numa-pools=16 / wpp / no-pmode / no-pme / no-psnr / no-ssim / log-level=2 / input-csp=1 / input-res=1920x1080 / interlace=0 / total-frames=0 / level-idc=0 / high-tier=1 / uhd-bd=0 / ref=6 / no-allow-non-conformance / no-repeat-headers / annexb / no-aud / no-hrd / info / hash=0 / no-temporal-layers / open-gop / min-keyint=24 / keyint=240 / bframes=16 / b-adapt=2 / b-pyramid / bframe-bias=0 / rc-lookahead=50 / lookahead-slices=4 / scenecut=40 / no-intra-refresh / ctu=32 / min-cu-size=8 / rect / no-amp / max-tu-size=32 / tu-inter-depth=1 / tu-intra-depth=3 / limit-tu=0 / rdoq-level=2 / dynamic-rd=0.00 / no-ssim-rd / signhide / tskip / nr-intra=0 / nr-inter=0 / no-constrained-intra / strong-intra-smoothing / max-merge=3 / limit-refs=3 / limit-modes / me=3 / subme=3 / merange=57 / temporal-mvp / weightp / no-weightb / no-analyze-src-pics / deblock=0:0 / sao / no-sao-non-deblock / rd=4 / no-early-skip / rskip / no-fast-intra / tskip-fast / no-cu-lossless / no-b-intra / no-splitrd-skip / rdpenalty=0 / psy-rd=2.00 / psy-rdoq=1.00 / no-rd-refine / analysis-reuse-mode=0 / no-lossless / cbqpoffs=0 / crqpoffs=0 / rc=crf / crf=16.0 / qcomp=0.60 / qpstep=4 / stats-write=0 / stats-read=0 / ipratio=1.40 / pbratio=1.30 / aq-mode=3 / aq-strength=0.80 / cutree / zone-count=0 / no-strict-cbr / qg-size=32 / no-rc-grain / qpmax=69 / qpmin=0 / no-const-vbv / sar=1 / overscan=0 / videoformat=5 / range=0 / colorprim=1 / transfer=1 / colormatrix=1 / chromaloc=0 / display-window=0 / max-cll=0,0 / min-luma=0 / max-luma=1023 / log2-max-poc-lsb=8 / vui-timing-info / vui-hrd-info / slices=1 / no-opt-qp-pps / no-opt-ref-list-length-pps / no-multi-pass-opt-rps / scenecut-bias=0.05 / no-opt-cu-delta-qp / no-aq-motion / no-hdr / no-hdr-opt / no-dhdr10-opt / analysis-reuse-level=5 / scale-factor=0 / refine-intra=0 / refine-inter=0 / refine-mv=0 / no-limit-sao / ctu-info=0 / no-lowpass-dct / refine-mv-type=0 / copy-pic=1Language : EnglishDefault : YesForced : NoColor range : LimitedColor primaries : BT.709Transfer characteristics : BT.709Matrix coefficients : BT.709Audio #1ID : 2Format : DTS XLLFormat/Info : Digital Theater SystemsCommercial name : DTS-HD Master AudioCodec ID : A_DTSDuration : 2 h 0 minBit rate mode : VariableBit rate : 3 786 kb/sChannel(s) : 6 channelsChannel layout : C L R Ls Rs LFESampling rate : 48.0 kHzFrame rate : 93.750 FPS (512 SPF)Bit depth : 24 bitsCompression mode : LosslessStream size : 3.18 GiB (23%)Language : EnglishDefault : YesForced : NoAudio #2ID : 3Format : DTS XLLFormat/Info : Digital Theater SystemsCommercial name : DTS-HD Master AudioCodec ID : A_DTSDuration : 2 h 0 minBit rate mode : VariableBit rate : 3 796 kb/sChannel(s) : 6 channelsChannel layout : C L R Ls Rs LFESampling rate : 48.0 kHzFrame rate : 93.750 FPS (512 SPF)Bit depth : 24 bitsCompression mode : LosslessStream size : 3.19 GiB (23%)Language : JapaneseDefault : NoForced : NoText #1ID : 4Format : PGSMuxing mode : zlibCodec ID : S_HDMV/PGSCodec ID/Info : Picture based subtitle format used on BDs/HD-DVDsDuration : 1 h 50 minBit rate : 1 540 b/sCount of elements : 91Stream size : 1.22 MiB (0%)Title : Signs / SongsLanguage : EnglishDefault : YesForced : NoText #2ID : 5Format : PGSMuxing mode : zlibCodec ID : S_HDMV/PGSCodec ID/Info : Picture based subtitle format used on BDs/HD-DVDsDuration : 1 h 59 minBit rate : 28.7 kb/sCount of elements : 2149Stream size : 24.5 MiB (0%)Title : DialogueLanguage : EnglishDefault : NoForced : NoText #3ID : 6Format : PGSMuxing mode : zlibCodec ID : S_HDMV/PGSCodec ID/Info : Picture based subtitle format used on BDs/HD-DVDsDuration : 1 h 59 minBit rate : 25.0 kb/sCount of elements : 2153Stream size : 21.3 MiB (0%)Title : DialogueLanguage : SpanishDefault : NoForced : NoMenu00:00:00.000 : en:Chapter 0100:04:06.246 : en:Chapter 0200:11:04.664 : en:Chapter 0300:19:37.051 : en:Chapter 0400:25:59.308 : en:Chapter 0500:32:03.130 : en:Chapter 0600:38:33.853 : en:Chapter 0700:42:36.888 : en:Chapter 0800:45:19.926 : en:Chapter 0900:51:59.992 : en:Chapter 1000:55:47.344 : en:Chapter 1101:02:52.519 : en:Chapter 1201:09:04.724 : en:Chapter 1301:19:41.402 : en:Chapter 1401:23:58.367 : en:Chapter 1501:26:41.154 : en:Chapter 1601:33:49.666 : en:Chapter 1701:39:29.964 : en:Chapter 1801:46:47.359 : en:Chapter 1901:50:46.682 : en:Chapter 2001:54:33.617 : en:Chapter 2101:59:13.647 : en:Chapter 22
Tracker(s)
udp://tracker.opentrackr.org:1337/announceS: 2L: 1C: 32U: 37d, 22hr, 14min ago
udp://tracker.coppersurfer.tk:6969/announceScrape failedU: 46d, 17hr, 35min ago
http://anidex.moe:6969/announceS: 1L: 1C: 7U: 31d, 20hr ago
http://nyaa.tracker.wf:7777/announceS: 4L: 1C: 364U: 34d, 3hr, 22min ago
udp://open.stealth.si:80/announceS: 2L: 1C: 8U: 59d, 19hr, 40min ago
Files
728.7 MB
13.78 GB
SubtitlesAll Attachments



10 comment(s):
02/08/2019 06:19 — Anonymous
Hi Can you please fix the download links for this?
02/08/2019 06:24 — Anonymous
Nope read what's posted below. The comment box.
02/08/2019 19:58 — Anonymous
If you try the most recent arrival and use Jheberg/1Fichier to download you are most likely to succeed, generally.
03/08/2019 13:10 — Anonymous
Ive Tried them all, no luck
03/08/2019 15:42 — Anonymous
03/08/2019 14:38 — Anonymous
No. Old links don't get re-uploaded here. read the FAQ
25/08/2019 09:42 — Anonymous
Well i want this release to finish up my pre Alicization collecton, i already have all of his SAO releases, so id like to grt this one as well.

Torrenting sucks in my country, so these DDL are all i've got.

Any of you have this on a cloud storage by chance?

I'd appreciate the help.
25/08/2019 11:25 *RamenSub
Try XDCC maybe?
You can get this at the channel #XDCCLeech@irc.xertion.org, while Sakura still serving it.
25/08/2019 16:37 — Anonymous
Haven't thought of that lol, i have XDCC stuff on my pcm haven't used it in a while tho.

How is the download speed?
L 29/08/2019 23:27 — MeH
Possibilities are endless ...
Mega
K = YVpZdk0zTmx6RGJ3dzFQWnhqY0tnNWxzWGs0UTVrUzZNTmY1UUJOTzJmcw==   (Decode here)
Add new comment
Name:
Comment Type:
Message:Please be aware of the following before commenting:
  • Anime Tosho provides a mirror of torrents and is not the source. Please understand that uploaders/submitters may not read comments here, so you should check the Source Links section near the top of this page if you wish to contact them
  • Expired links do NOT get reuploaded as files are deleted after we process them
  • Uploads are NOT instant, so please wait for them to be processed
  • The entire uploading process is done by a bot which does NOT read any comments, so asking for links will have no effect on when they show up
  • Critical comments are welcome, however note that statements such as "X is crap" or "Y sucks" are NOT criticisms and aren't useful to anyone. Please back such statements up with reasoning to be both informative and demonstrate that you aren't just some whiney kid.
Image Verification:

Our squiggly text game where the aim is to copy the image into the textbox. All characters are upper case, and there are no zeros (0) and ones (1) in the above image. Apparently bots aren't as good as humans at this game.
beta
Anime DDL+NZB mirror
Current Time: 19/09/2019 14:02



About/FAQs