SSSS.Gridman_(BD720p_10bit_HEVC_SmoodFlamez)


Source LinksNyaa | Torrent Download | Magnet Link (1.369 GB) | NZB
Date Submitted14/07/2019 13:27
Series (!)SSSS.Gridman
CommentTitleSSSS Gridman![img](https://i.imgur.com/VtpFyS0.jpg[/img])SourceDmonHiroSynopsisYuuta Hibiki wakes up in the room of Rikka Takarada and notices two things: he has no memories, and he can hear a mysterious voice calling his name from a nearby room. On further inspection, he finds a robot—which introduces itself as Hyper Agent Gridman—behind the screen of an old computer. Much to Yuuta's surprise, Rikka cannot hear Gridman, nor can she see the ominous monsters looming over a thick fog as it envelopes the town outside.Another giant monster materializes in the city and proceeds to wreak havoc. Amidst the confusion, Yuuta is once again drawn to the old computer and merges with Gridman. Suddenly, he appears in the middle of the battle and is forced to fight the monster. Together with Rikka and fellow classmate Shou Utsumi, Yuuta forms the "Gridman Alliance" to defeat the monsters plaguing the city and find whoever is responsible for their emergence.InformationType: TVEpisodes: 12Status: Finished AiringAired: Oct 7, 2018 to Dec 23, 2018Premiered: Fall 2018Broadcast: Sundays at 00:00 (JST)Producers: Mainichi Broadcasting System, Pony Canyon, Tsuburaya Productions, KlockWorx, Ultra Super Pictures, Graphinica, Docomo Anime Store, Fields, BS11Licensors: FunimationStudios: TriggerSource: OriginalGenres: Action, Sci-Fi, MechaDuration: 23 min. per ep.Rating: PG-13 - Teens 13 or older======================================================MediaInfoVideoID : 1Format : HEVCFormat/Info : High Efficiency Video CodingFormat profile : Main 10@L3.1@MainCodec ID : V_MPEGH/ISO/HEVCDuration : 23 min 41 sBit rate : 661 kb/sWidth : 1 280 pixelsHeight : 720 pixelsDisplay aspect ratio : 16:9Frame rate mode : ConstantFrame rate : 23.976 (24000/1001) FPSColor space : YUVChroma subsampling : 4:2:0Bit depth : 10 bitsAudioID : 2Format : VorbisFormat settings, Floor : 1Codec ID : A_VORBISDuration : 23 min 41 sBit rate mode : VariableBit rate : 80.0 kb/sChannel(s) : 2 channelsSampling rate : 48.0 kHzFrame rate : 55.750 FPS (861 SPF)Compression mode : LossyDelay relative to video : 9 msStream size : 12.6 MiB (10%)Title : StereoWriting library : libVorbis (Now 100% fewer shells) (20180316 (Now 100% fewer shells))Language : EnglishDefault : YesForced : NoComment : Processed by SoXTextID : 3Format : ASSCodec ID : S_TEXT/ASSCodec ID/Info : Advanced Sub Station AlphaDuration : 20 min 12 sBit rate : 171 b/sCount of elements : 315Compression mode : LosslessStream size : 25.4 KiB (0%)Default : NoForced : Yes============================================================Screenshots![img](https://i.imgur.com/Hk75lBW.png[/img])![img](https://i.imgur.com/uHPnXJD.png[/img])
Tracker(s)
udp://tracker.opentrackr.org:1337/announceS: 2L: 0C: 135U: 41d, 13hr, 11min ago
udp://tracker.coppersurfer.tk:6969/announceScrape failedU: 48d, 10hr, 45min ago
udp://exodus.desync.com:6969/announce-
udp://eddie4.nl:6969/announceScrape failedU: 1d, 11hr, 52min ago
udp://tracker.zer0day.to:1337/announceScrape failedU: 6d, 10hr, 55min ago
http://nyaa.tracker.wf:7777/announceS: 4L: 0C: 156U: 41d, 16hr, 9min ago
udp://open.stealth.si:80/announceS: 2L: 0C: 109U: 41d, 13hr, 42min ago
Files
89.12 MB
108.7 MB
125.4 MB
100.1 MB
139.3 MB
97.45 MB
102.1 MB
125.0 MB
91.55 MB
122.7 MB
118.7 MB
150.6 MB
31.00 MB
SubtitlesAll Attachments



0 comment(s):
Add new comment
Name:
Comment Type:
Message:Please be aware of the following before commenting:
  • Anime Tosho provides a mirror of torrents and is not the source. Please understand that uploaders/submitters may not read comments here, so you should check the Source Links section near the top of this page if you wish to contact them
  • Expired links do NOT get reuploaded as files are deleted after we process them
  • Uploads are NOT instant, so please wait for them to be processed
  • The entire uploading process is done by a bot which does NOT read any comments, so asking for links will have no effect on when they show up
  • Critical comments are welcome, however note that statements such as "X is crap" or "Y sucks" are NOT criticisms and aren't useful to anyone. Please back such statements up with reasoning to be both informative and demonstrate that you aren't just some whiney kid.
Image Verification:

Our squiggly text game where the aim is to copy the image into the textbox. All characters are upper case, and there are no zeros (0) and ones (1) in the above image. Apparently bots aren't as good as humans at this game.
beta
Anime DDL+NZB mirror
Current Time: 23/09/2019 10:07



About/FAQs