Seven Days War (Bokura no Nanokakan Sensou) [Movie][1080p]


Source LinksNyaa | Torrent Download | Magnet Link (1.743 GB) | NZB
Date Submitted20/05/2020 17:26
Series (!)Bokura no Nanokakan Sensou - Complete Movie
CommentOriginal release: https://nyaa.si/view/1247609Reencoded for smaller file size.![Screenshot 1](https://i.paste.pics/c73ec74a8891bb5c5f144e27f97fe9c0.png)![Screenshot 2](https://i.paste.pics/a7db00902c9f58fbcb6b109fd7406c23.png)VideoID : 2Format : AVCFormat/Info : Advanced Video CodecFormat profile : Baseline@L4.2Format settings : 4 Ref FramesFormat settings, CABAC : NoFormat settings, Reference frames : 4 framesCodec ID : V_MPEG4/ISO/AVCDuration : 1 h 27 minBit rate : 2 684 kb/sWidth : 1 920 pixelsHeight : 1 080 pixelsDisplay aspect ratio : 16:9Frame rate mode : ConstantFrame rate : 29.970 (30000/1001) FPSStandard : ComponentColor space : YUVChroma subsampling : 4:2:0Bit depth : 8 bitsScan type : ProgressiveBits/(Pixel*Frame) : 0.043Stream size : 1.64 GiB (94%)Title : Bokura no Nanokakan Sensou | Yahoo JPLanguage : JapaneseDefault : YesForced : NoColor range : LimitedAudioID : 3Format : AAC LCFormat/Info : Advanced Audio Codec Low ComplexityCodec ID : A_AAC-2Duration : 1 h 27 minBit rate : 160 kb/sChannel(s) : 2 channelsChannel layout : L RSampling rate : 48.0 kHzFrame rate : 46.875 FPS (1024 SPF)Compression mode : LossyDelay relative to video : -21 msStream size : 101 MiB (6%)Title : 2.0 AAC | Yahoo JPLanguage : JapaneseDefault : YesForced : NoTextID : 1Format : ASSCodec ID : S_TEXT/ASSCodec ID/Info : Advanced Sub Station AlphaDuration : 1 h 26 minBit rate : 1 421 b/sCount of elements : 6306Compression mode : LosslessStream size : 900 KiB (0%)Title : EnglishLanguage : EnglishDefault : YesForced : No
Tracker(s)
udp://tracker.opentrackr.org:1337/announceS: 20L: 1C: 257U: 23hr, 33min ago
udp://tracker.coppersurfer.tk:6969/announceScrape failedU: 9hr, 11min ago
udp://exodus.desync.com:6969/announce-
http://nyaa.tracker.wf:7777/announceS: 22L: 10C: 386U: 7hr, 5min ago
udp://open.stealth.si:80/announceS: 19L: 2C: 282U: 22hr, 38min ago
File Name (Size)Bokura.no.Nanokakan.Sensou.1080p.mkv (1.743 GB)
DownloadAnonFiles | ClickNUpload | DropAPK
Free: Part1, Part2
MultiUp: Part1
  • BdUpload
  • DownAce
  • Fichier
  • FileCloud
  • Filerio
  • FilesCdn
  • IndiShare
  • Kbagi
  • Turbobit
  • UpToBox
  • Uppit
, Part2
  • BdUpload
  • DownAce
  • Fichier
  • FileCloud
  • Filerio
  • FilesCdn
  • IndiShare
  • Kbagi
  • Turbobit
  • UpToBox
  • Uppit
, Part3
  • BdUpload
  • DownAce
  • Fichier
  • FileCloud
  • Filerio
  • FilesCdn
  • IndiShare
  • Kbagi
  • Turbobit
  • UpToBox
  • Uppit
, Part4
  • BdUpload
  • DownAce
  • Fichier
  • FileCloud
  • Filerio
  • FilesCdn
  • IndiShare
  • Kbagi
  • Turbobit
  • UpToBox
  • Uppit

Sendspace: Part1, Part2, Part3, Part4, Part5, Part6
SolidFiles: Part1, Part2, Part3, Part4
ZippyShare: Part1, Part2, Part3, Part4
Screenshots
screenshotscreenshotscreenshotscreenshotscreenshot
SubtitlesAll Attachments | English [eng, ASS]



1 comment(s):
Q 22/05/2020 19:50 — Anonymous
Is "Wilkommenskultur" (western european style mindless support of illegal migration) now also mandatory in japanese media, due to influence of George Soros? Why else would they make an anime movie with a kalergist agenda like this?
Add new comment
Name:
Comment Type:
Message:Please be aware of the following before commenting:
  • Anime Tosho provides a mirror of torrents and is not the source. Please understand that uploaders/submitters may not read comments here, so you should check the Source Links section near the top of this page if you wish to contact them
  • Expired links do NOT get reuploaded as files are deleted after we process them
  • Uploads are NOT instant, so please wait for them to be processed
  • The entire uploading process is done by a bot which does NOT read any comments, so asking for links will have no effect on when they show up
  • Critical comments are welcome, however note that statements such as "X is crap" or "Y sucks" are NOT criticisms and aren't useful to anyone. Please back such statements up with reasoning to be both informative and demonstrate that you aren't just some whiney kid.
Image Verification:

Our squiggly text game where the aim is to copy the image into the textbox. All characters are upper case, and there are no zeros (0) and ones (1) in the above image. Apparently bots aren't as good as humans at this game.
beta
Anime DDL+NZB mirror
Current Time: 27/05/2020 08:46



About/FAQs