Seishun Buta Yarou wa Bunny Girl Senpai no Yume o Minai_(BD720p_Hevc_SmoodFlamez)


Source LinksNyaa | Torrent Download | Magnet Link (1.390 GB) | NZB
Date Submitted12/10/2019 12:51
Series (!)Seishun Buta Yarou wa Bunny Girl Senpai no Yume o Minai
CommentTitleSeishun Buta Yarou wa Bunny Girl Senpai no Yume wo Minai![img](https://i.imgur.com/Gs5P46L.jpg[/img])SourceBeatrice-RawsSynopsisThe rare and inexplicable Puberty Syndrome is thought of as a myth. It is a rare disease which only affects teenagers, and its symptoms are so supernatural that hardly anyone recognizes it as a legitimate occurrence. However, high school student Sakuta Azusagawa knows from personal experience that it is very much real, and happens to be quite prevalent in his school.Mai Sakurajima is a third-year high school student who gained fame in her youth as a child actress, but recently halted her promising career for reasons unknown to the public. With an air of unapproachability, she is well known throughout the school, but none dare interact with her—that is until Sakuta sees her wandering the library in a bunny girl costume. Despite the getup, no one seems to notice her, and after confronting her, he realizes that she is another victim of Puberty Syndrome. As Sakuta tries to help Mai through her predicament, his actions bring him into contact with more girls afflicted with the elusive disease.InformationType: TVEpisodes: 13Status: Finished AiringAired: Oct 4, 2018 to Dec 27, 2018Premiered: Fall 2018Broadcast: Thursdays at 02:20 (JST)Producers: Aniplex, Tokyo MX, Hakuhodo DY Music & Pictures, Nagoya Broadcasting Network, BS11, ABC Animation, KadokawaLicensors: Aniplex of AmericaStudios: CloverWorksSource: Light novelGenres: Comedy, Romance, School, SupernaturalDuration: 24 min. per ep.Rating: PG-13 - Teens 13 or older====================================================================VideoID : 1Format : HEVCFormat/Info : High Efficiency Video CodingFormat profile : Main 10@L6.1@HighCodec ID : V_MPEGH/ISO/HEVCDuration : 25 min 1 sBit rate : 477 kb/sWidth : 1 280 pixelsHeight : 720 pixelsDisplay aspect ratio : 16:9Frame rate mode : ConstantFrame rate : 23.976 (24000/1001) FPSColor space : YUVChroma subsampling : 4:2:0Bit depth : 10 bitsAudioID : 2Format : OpusCodec ID : A_OPUSDuration : 25 min 1 sBit rate : 76.8 kb/sChannel(s) : 2 channelsChannel layout : L RSampling rate : 96.0 kHzFrame rate : 50.000 FPS (1920 SPF)Compression mode : LossyStream size : 13.7 MiB (14%)Language : JapaneseDefault : YesForced : NoTextID : 3Format : ASSCodec ID : S_TEXT/ASSCodec ID/Info : Advanced Sub Station AlphaDuration : 25 min 0 sBit rate : 162 b/sCount of elements : 475Compression mode : LosslessStream size : 29.7 KiB (0%)Language : EnglishDefault : NoForced : YesMenu00:00:00.000 : en:Avant - 00:00:00.00000:00:37.037 : en:OP - 00:00:37.03700:02:07.002 : en:Part A - 00:02:07.00200:11:46.039 : en:Part B - 00:11:46.03900:23:55.059 : en:ED - 00:23:55.05900:24:55.035 : en:Next - 00:24:55.035======================================================================Screenshots![img](https://i.imgur.com/I2jzMJO.png[/img])![img](https://i.imgur.com/PdKIJ98.png[/img])
Tracker(s)
udp://tracker.opentrackr.org:1337/announceS: 5L: 6C: 94U: 1d, 15hr, 28min ago
udp://tracker.coppersurfer.tk:6969/announceScrape failedU: 1d, 16hr, 59min ago
udp://exodus.desync.com:6969/announce-
udp://eddie4.nl:6969/announceScrape failedU: 32min ago
udp://tracker.zer0day.to:1337/announceScrape failedU: 18min ago
http://nyaa.tracker.wf:7777/announceS: 10L: 2C: 120U: 1d, 1hr, 45min ago
udp://open.stealth.si:80/announceScrape failedU: 1d, 16hr, 13min ago
Files
142.1 MB
107.5 MB
114.7 MB
99.53 MB
102.7 MB
124.6 MB
82.08 MB
96.81 MB
101.2 MB
126.6 MB
114.4 MB
98.19 MB
94.23 MB
18.37 MB
SubtitlesAll Attachments



0 comment(s):
Add new comment
Name:
Comment Type:
Message:Please be aware of the following before commenting:
  • Anime Tosho provides a mirror of torrents and is not the source. Please understand that uploaders/submitters may not read comments here, so you should check the Source Links section near the top of this page if you wish to contact them
  • Expired links do NOT get reuploaded as files are deleted after we process them
  • Uploads are NOT instant, so please wait for them to be processed
  • The entire uploading process is done by a bot which does NOT read any comments, so asking for links will have no effect on when they show up
  • Critical comments are welcome, however note that statements such as "X is crap" or "Y sucks" are NOT criticisms and aren't useful to anyone. Please back such statements up with reasoning to be both informative and demonstrate that you aren't just some whiney kid.
Image Verification:

Our squiggly text game where the aim is to copy the image into the textbox. All characters are upper case, and there are no zeros (0) and ones (1) in the above image. Apparently bots aren't as good as humans at this game.
beta
Anime DDL+NZB mirror
Current Time: 17/10/2019 22:12



About/FAQs