RIN - Daughters of Mnemosyne + Extras (BD1080p HEVC 10bit SmoodFlamez)


Source LinksNyaa | Torrent Download | Magnet Link (1.837 GB) | NZB
Date Submitted30/08/2019 13:45
Series (!)Mnemosyne: Mnemosyne no Musume-tachi
CommentTitleMnemosyne: Mnemosyne no Musume-tachi![img](https://i.imgur.com/F2YBHws.jpg[/img])SourceJustAfanSynopsisFor normal people, getting stabbed to death would constitute the end of the road. For Rin Asogi, it's a mere inconvenience. Rin is immortal, a nice perk to have when you're a private detective constantly finding yourself in dangerous situations.Rin has eaten a "time fruit": a fruit from the guardian tree Yggdrasil, which, when consumed by a woman, makes her unable to die. Rin's immortality doesn't stop others from trying to kill her, of course; over her long lifetime she has been shot at, cut up, maimed, tortured, and suffered countless other violent deaths.This time, it's different. The year 1990 sparks the beginning of a series of events in Rin's life that sends her spiraling toward her fate. Someone is hunting down immortal women like Rin, and Rin's life may be in actual danger.Mnemosyne no Musume-tachi spans 65 years in Rin's life, during which she watches those around her get old while she herself remains unchanged. Higher forces are after her, and Rin must use every means at her disposal—or her next death may just be her last.And it all begins when she goes searching for a lost cat, but finds the amnesiac Koki Maeno instead...InformationType: TVEpisodes: 6Status: Finished AiringAired: Feb 4, 2008 to Jul 7, 2008Premiered: Winter 2008Broadcast: UnknownProducers: VAP, Sotsu, Genco, AT-X, ShowgateLicensors: FunimationStudios: XebecSource: OriginalGenres: Action, Sci-Fi, Horror, Supernatural, Shoujo AiDuration: 45 min. per ep.Rating: R+ - Mild Nudity==============================================================================================MediaInfoVideoID : 1Format : HEVCFormat/Info : High Efficiency Video CodingFormat profile : Main 10@L5.1@HighCodec ID : V_MPEGH/ISO/HEVCDuration : 45 min 32 sBit rate : 722 kb/sWidth : 1 920 pixelsHeight : 1 080 pixelsDisplay aspect ratio : 16:9Frame rate mode : ConstantFrame rate : 23.976 (24000/1001) FPSColor space : YUVChroma subsampling : 4:2:0Bit depth : 10 bitsAudioID : 2Format : AAC LCFormat/Info : Advanced Audio Codec Low ComplexityCodec ID : A_AAC-2Duration : 45 min 32 sBit rate : 80.0 kb/sChannel(s) : 6 channelsChannel layout : C L R Ls Rs LFESampling rate : 96.0 kHzFrame rate : 93.750 FPS (1024 SPF)Compression mode : LossyDelay relative to video : 4 msStream size : 26.1 MiB (10%)Language : JapaneseDefault : YesForced : NoText #1ID : 3Format : PGSCodec ID : S_HDMV/PGSCodec ID/Info : Picture based subtitle format used on BDs/HD-DVDsDuration : 45 min 5 sBit rate : 30.2 kb/sCount of elements : 1016Stream size : 9.74 MiB (4%)Language : EnglishDefault : NoForced : NoText #2ID : 4Format : PGSCodec ID : S_HDMV/PGSCodec ID/Info : Picture based subtitle format used on BDs/HD-DVDsDuration : 44 min 14 sBit rate : 1 566 b/sCount of elements : 48Stream size : 508 KiB (0%)Language : EnglishDefault : NoForced : YesMenu00:00:00.000 : en:Chapter 01 - 00:00:00.00000:01:31.049 : en:Chapter 02 - 00:01:31.04900:11:52.878 : en:Chapter 03 - 00:11:52.87800:22:31.183 : en:Chapter 04 - 00:22:31.18300:33:42.770 : en:Chapter 05 - 00:33:42.77000:43:30.941 : en:Chapter 06 - 00:43:30.94100:45:00.989 : en:Chapter 07 - 00:45:00.989================================================================================================================Screenshots![img](https://i.imgur.com/7sTus1x.png[/img])![img](https://i.imgur.com/7gyF9jc.png[/img])
Tracker(s)
udp://tracker.opentrackr.org:1337/announceS: 2L: 0C: 169U: 37d, 22hr, 39min ago
udp://tracker.coppersurfer.tk:6969/announceScrape failedU: 44d, 21min ago
udp://exodus.desync.com:6969/announce-
udp://eddie4.nl:6969/announceScrape failedU: 1d, 4hr, 56min ago
udp://tracker.zer0day.to:1337/announceScrape failedU: 2d, 6hr, 23min ago
http://nyaa.tracker.wf:7777/announceS: 4L: 2C: 1311U: 6d, 53min ago
udp://open.stealth.si:80/announceS: 2L: 1C: 75U: 46d, 6hr, 47min ago
Files
91.90 MB
24.70 MB
19.87 MB
40.65 MB
59.61 MB
256.8 MB
272.5 MB
255.1 MB
302.3 MB
236.6 MB
321.5 MB
SubtitlesAll Attachments



0 comment(s):
Add new comment
Name:
Comment Type:
Message:Please be aware of the following before commenting:
  • Anime Tosho provides a mirror of torrents and is not the source. Please understand that uploaders/submitters may not read comments here, so you should check the Source Links section near the top of this page if you wish to contact them
  • Expired links do NOT get reuploaded as files are deleted after we process them
  • Uploads are NOT instant, so please wait for them to be processed
  • The entire uploading process is done by a bot which does NOT read any comments, so asking for links will have no effect on when they show up
  • Critical comments are welcome, however note that statements such as "X is crap" or "Y sucks" are NOT criticisms and aren't useful to anyone. Please back such statements up with reasoning to be both informative and demonstrate that you aren't just some whiney kid.
Image Verification:

Our squiggly text game where the aim is to copy the image into the textbox. All characters are upper case, and there are no zeros (0) and ones (1) in the above image. Apparently bots aren't as good as humans at this game.
beta
Anime DDL+NZB mirror
Current Time: 08/07/2020 03:24



About/FAQs