[Rexorria Team] Violet Evergarden (2019) (Movie) [1080p Bluray REMUX AVC AC3 5.1] [Dual Audio] -ZR-


This torrent has not been fetched due to skipping policy - please see source links for more information.
Source LinksNyaa | Torrent Download | Magnet Link (24.67 GB)
Date Submitted10/04/2020 01:58
Series (!)Violet Evergarden
Comment**Thanks to 逐风@Mabors-Sub For the JP BDMV****Thanks to KiyoshiStar For getting the English Audio and Subs to work on the JP BD Video****Original Subs from DragsterPS Release****HUGE thanks to ZR for the source!*****_________________________________________________________________________________________________________________________________________________________________***Format : MatroskaFormat version : Version 4File size : 24.7 GiBDuration : 1 h 30 minOverall bit rate mode : VariableOverall bit rate : 39.0 Mb/sEncoded date : UTC 2020-04-05 17:27:55Writing application : mkvmerge v29.0.0 ('Like It Or Not') 32-bitWriting library : libebml v1.3.6 + libmatroska v1.4.9Attachments : comic.ttf / corbelb.ttf / Dosis-Regular.ttf / Dosis-SemiBold.ttf / Gabriola.ttf / GANDHISANS-BOLD.OTF / GandhiSans-BoldItalic.otf / segoepr.ttf / ariblk.ttf / BadScript-Regular.ttf / Candara.ttfVideoID : 1Format : AVCFormat/Info : Advanced Video CodecFormat profile : High@L4.1Format settings : CABAC / 4 Ref FramesFormat settings, CABAC : YesFormat settings, RefFrames : 4 framesFormat settings, GOP : M=1, N=12Codec ID : V_MPEG4/ISO/AVCDuration : 1 h 30 minBit rate mode : VariableBit rate : 31.3 Mb/sMaximum bit rate : 34.0 Mb/sWidth : 1 920 pixelsHeight : 1 080 pixelsDisplay aspect ratio : 16:9Frame rate mode : ConstantFrame rate : 23.976 (24000/1001) FPSColor space : YUVChroma subsampling : 4:2:0Bit depth : 8 bitsScan type : ProgressiveBits/(Pixel*Frame) : 0.630Stream size : 19.8 GiB (80%)Language : JapaneseDefault : YesForced : NoAudio #1ID : 2Format : AC-3Format/Info : Audio Coding 3Commercial name : Dolby DigitalCodec ID : A_AC3Duration : 1 h 30 minBit rate mode : ConstantBit rate : 640 kb/sChannel(s) : 6 channelsChannel layout : L R C LFE Ls RsSampling rate : 48.0 kHzFrame rate : 31.250 FPS (1536 SPF)Bit depth : 16 bitsCompression mode : LossyStream size : 415 MiB (2%)Title : English (Netflix, AC3)Language : EnglishService kind : Complete MainDefault : YesForced : NoAudio #2ID : 3Format : PCMFormat settings : Little / SignedCodec ID : A_PCM/INT/LITDuration : 1 h 30 minBit rate mode : ConstantBit rate : 6 912 kb/sChannel(s) : 6 channelsSampling rate : 48.0 kHzFrame rate : 32.000 FPS (1500 SPF)Bit depth : 24 bitsStream size : 4.38 GiB (18%)Language : JapaneseDefault : NoForced : NoText #1ID : 4Format : ASSCodec ID : S_TEXT/ASSCodec ID/Info : Advanced Sub Station AlphaDuration : 1 h 26 minBit rate : 9 b/sCount of elements : 86Compression mode : LosslessStream size : 6.17 KiB (0%)Title : Signs & Songs (D0ugyB0y, SSA)Language : EnglishDefault : YesForced : NoText #2ID : 5Format : ASSCodec ID : S_TEXT/ASSCodec ID/Info : Advanced Sub Station AlphaDuration : 1 h 27 minBit rate : 71 b/sCount of elements : 919Compression mode : LosslessStream size : 46.0 KiB (0%)Title : Subtitles (D0ugyB0y, SSA)Language : EnglishDefault : NoForced : NoText #3ID : 6Format : UTF-8Codec ID : S_TEXT/UTF8Codec ID/Info : UTF-8 Plain TextDuration : 1 h 28 minBit rate : 32 b/sCount of elements : 805Stream size : 21.1 KiB (0%)Title : Subtitles (Netflix, SRT)Language : EnglishDefault : NoForced : NoText #4ID : 7Format : UTF-8Codec ID : S_TEXT/UTF8Codec ID/Info : UTF-8 Plain TextDuration : 1 h 30 minBit rate : 57 b/sCount of elements : 1072Stream size : 38.3 KiB (0%)Title : Japanese CC (Netflix, SRT)Language : JapaneseDefault : NoForced : NoText #5ID : 8Format : PGSMuxing mode : zlibCodec ID : S_HDMV/PGSCodec ID/Info : Picture based subtitle format used on BDs/HD-DVDsDuration : 1 h 30 minBit rate : 168 kb/sCount of elements : 6544Stream size : 108 MiB (0%)Title : Japanese CC (BD, SUP)Language : JapaneseDefault : NoForced : NoMenu00:00:00.000 : en:Chapter 0100:09:55.762 : en:Chapter 0200:19:59.657 : en:Chapter 0300:29:55.419 : en:Chapter 0400:43:28.815 : en:Chapter 0500:53:38.841 : en:Chapter 0601:03:20.714 : en:Chapter 0701:13:29.780 : en:Chapter 0801:25:44.514 : en:Chapter 09
Tracker(s)
udp://tracker.opentrackr.org:1337/announceS: 19L: 4C: 432U: 53d, 22hr, 31min ago
udp://tracker.coppersurfer.tk:6969/announceScrape failedU: 55d, 15hr, 33min ago
udp://tracker.internetwarriors.net:1337/announce-
udp://exodus.desync.com:6969/announce-
udp://explodie.org:6969/announceS: 4L: 0C: 0U: 3d, 19min ago
http://tracker.opentrackr.org:1337/announceS: 12L: 1C: 650U: 3d, 22hr, 59min ago
udp://9.rarbg.me:2720/announceScrape failedU: 19hr, 27min ago
udp://tracker.internetwarriors.net:1337S: 6L: 2C: 22U: 11hr, 57min ago
udp://tracker.cyberia.is:6969/announceS: 7L: 0C: 265U: 4d, 13hr, 15min ago
http://nyaa.tracker.wf:7777/announceS: 27L: 1C: 431U: 53d, 14hr, 31min ago
udp://open.stealth.si:80/announceS: 19L: 4C: 406U: 53d, 21hr, 43min ago
udp://thetracker.org/announceScrape failedU: 1d, 3hr, 2min ago
udp://open.demonii.si:1337/announceScrape failedU: 2d, 15hr, 5min ago
udp://denis.stalker.upeer.me:6969/announceScrape failedU: 3hr, 3min ago



0 comment(s):
Add new comment
Name:
Comment Type:
Message:Please be aware of the following before commenting:
  • Anime Tosho provides a mirror of torrents and is not the source. Please understand that uploaders/submitters may not read comments here, so you should check the Source Links section near the top of this page if you wish to contact them
  • Expired links do NOT get reuploaded as files are deleted after we process them
  • Uploads are NOT instant, so please wait for them to be processed
  • The entire uploading process is done by a bot which does NOT read any comments, so asking for links will have no effect on when they show up
  • Critical comments are welcome, however note that statements such as "X is crap" or "Y sucks" are NOT criticisms and aren't useful to anyone. Please back such statements up with reasoning to be both informative and demonstrate that you aren't just some whiney kid.
Image Verification:

Our squiggly text game where the aim is to copy the image into the textbox. All characters are upper case, and there are no zeros (0) and ones (1) in the above image. Apparently bots aren't as good as humans at this game.
beta
Anime DDL+NZB mirror
Current Time: 02/07/2020 06:39



About/FAQs