[Prof] Mob Psycho 100 (1080p x265 HEVC 10bit AAC 5.1 Eng Dub)


Source LinksNyaa | Torrent Download | Magnet Link (6.887 GB) | NZB
Date Submitted30/01/2018 22:24
Series (!)Mob Psycho 100
CommentFormat : MatroskaFormat version : Version 4 / Version 2File size : 592 MiBDuration : 24 min 11 sOverall bit rate : 3 423 kb/sMovie name : Mob Psycho 100 Disc 1Encoded date : UTC 2018-01-27 16:07:34Writing application : mkvmerge v9.6.0 ('Slave To Your Mind') 64bitWriting library : libebml v1.3.4 + libmatroska v1.4.5VideoID : 1Format : HEVCFormat/Info : High Efficiency Video CodingFormat profile : Main 10@L4@MainCodec ID : V_MPEGH/ISO/HEVCDuration : 24 min 11 sBit rate : 3 142 kb/sWidth : 1 920 pixelsHeight : 1 080 pixelsDisplay aspect ratio : 16:9Frame rate mode : ConstantFrame rate : 23.976 (24000/1001) FPSColor space : YUVChroma subsampling : 4:2:0Bit depth : 10 bitsBits/(Pixel*Frame) : 0.063Stream size : 544 MiB (92%)Writing library : x265 2.1+69-c97c64ab8b8e:[Windows][GCC 6.2.0][64 bit] 10bitEncoding settings : cpuid=1173503 / frame-threads=2 / numa-pools=4 / wpp / no-pmode / no-pme / no-psnr / no-ssim / log-level=2 / input-csp=1 / input-res=1920x1080 / interlace=0 / total-frames=34812 / level-idc=0 / high-tier=1 / uhd-bd=0 / ref=4 / no-allow-non-conformance / no-repeat-headers / annexb / no-aud / no-hrd / info / hash=0 / no-temporal-layers / open-gop / min-keyint=23 / keyint=250 / bframes=4 / b-adapt=2 / b-pyramid / bframe-bias=0 / rc-lookahead=25 / lookahead-slices=4 / scenecut=40 / no-intra-refresh / ctu=64 / min-cu-size=8 / rect / no-amp / max-tu-size=32 / tu-inter-depth=1 / tu-intra-depth=1 / limit-tu=0 / rdoq-level=2 / signhide / no-tskip / nr-intra=0 / nr-inter=0 / no-constrained-intra / strong-intra-smoothing / max-merge=3 / limit-refs=3 / limit-modes / me=3 / subme=3 / merange=57 / temporal-mvp / weightp / no-weightb / no-analyze-src-pics / deblock=0:0 / sao / no-sao-non-deblock / rd=4 / no-early-skip / rskip / no-fast-intra / no-tskip-fast / no-cu-lossless / no-b-intra / rdpenalty=0 / psy-rd=2.00 / psy-rdoq=1.00 / no-rd-refine / analysis-mode=0 / no-lossless / cbqpoffs=0 / crqpoffs=0 / rc=crf / crf=19.0 / qcomp=0.60 / qpstep=4 / stats-write=0 / stats-read=0 / ipratio=1.40 / pbratio=1.30 / aq-mode=1 / aq-strength=1.00 / cutree / zone-count=0 / no-strict-cbr / qg-size=32 / no-rc-grain / qpmax=69 / qpmin=0 / sar=0 / overscan=0 / videoformat=5 / range=0 / colorprim=2 / transfer=2 / colormatrix=2 / chromaloc=0 / display-window=0 / max-cll=0,0 / min-luma=0 / max-luma=1023 / log2-max-poc-lsb=8 / vui-timing-info / vui-hrd-info / slices=1 / opt-qp-pps / opt-ref-list-length-pps / no-multi-pass-opt-rps / scenecut-bias=0.05Default : YesForced : NoAudioID : 2Format : AACFormat/Info : Advanced Audio CodecFormat profile : LCCodec ID : A_AACDuration : 24 min 11 sBit rate : 258 kb/sChannel(s) : 6 channelsChannel positions : Front: L C R, Side: L R, LFESampling rate : 48.0 kHzFrame rate : 46.875 FPS (1024 spf)Compression mode : LossyDelay relative to video : 9 msStream size : 44.6 MiB (8%)Language : EnglishDefault : NoForced : NoText #1ID : 3Format : PGSMuxing mode : zlibCodec ID : S_HDMV/PGSCodec ID/Info : Picture based subtitle format used on BDs/HD-DVDsDuration : 22 min 29 sBit rate : 18.7 kb/sCount of elements : 899Stream size : 3.01 MiB (1%)Language : EnglishDefault : NoForced : NoText #2ID : 4Format : PGSMuxing mode : zlibCodec ID : S_HDMV/PGSCodec ID/Info : Picture based subtitle format used on BDs/HD-DVDsDuration : 22 min 29 sBit rate : 4 027 b/sCount of elements : 168Stream size : 664 KiB (0%)Language : EnglishDefault : NoForced : NoMenu00:00:00.000 : en:Chapter 0100:07:56.017 : en:Chapter 0200:09:25.982 : en:Chapter 0300:13:08.954 : en:Chapter 0400:22:24.468 : en:Chapter 0500:23:55.934 : en:Chapter 06
Tracker(s)
udp://tracker.opentrackr.org:1337/announceS: 0L: 1C: 1U: 45d, 11hr, 9min ago
udp://tracker.coppersurfer.tk:6969/announceScrape failedU: 221d, 1hr, 14min ago
udp://eddie4.nl:6969/announceScrape failedU: 25d, 18hr, 40min ago
udp://tracker.leechers-paradise.org:6969/announceScrape failedU: 109d, 19hr, 28min ago
udp://tracker.zer0day.to:1337/announceScrape failedU: 5d, 13hr, 13min ago
http://nyaa.tracker.wf:7777/announceS: 0L: 0C: 541U: 54d, 3hr, 31min ago
udp://open.stealth.si:80/announceS: 0L: 0C: 0U: 63d, 1hr, 23min ago
Files
592.5 MB
613.8 MB
651.1 MB
619.4 MB
650.7 MB
597.7 MB
614.0 MB
449.8 MB
602.6 MB
565.6 MB
566.9 MB
528.8 MB
SubtitlesAll Attachments



0 comment(s):
Add new comment
Name:
Comment Type:
Message:Please be aware of the following before commenting:
  • Anime Tosho provides a mirror of torrents and is not the source. Please understand that uploaders/submitters may not read comments here, so you should check the Source Links section near the top of this page if you wish to contact them
  • Expired links do NOT get reuploaded as files are deleted after we process them
  • Uploads are NOT instant, so please wait for them to be processed
  • The entire uploading process is done by a bot which does NOT read any comments, so asking for links will have no effect on when they show up
  • Critical comments are welcome, however note that statements such as "X is crap" or "Y sucks" are NOT criticisms and aren't useful to anyone. Please back such statements up with reasoning to be both informative and demonstrate that you aren't just some whiney kid.
Image Verification:

Our squiggly text game where the aim is to copy the image into the textbox. All characters are upper case, and there are no zeros (0) and ones (1) in the above image. Apparently bots aren't as good as humans at this game.
beta
Anime DDL+NZB mirror
Current Time: 17/11/2019 19:40



About/FAQs