[Prof] Food Wars (1080p x265 HEVC 10bit AAC Eng Dub)


Source LinksNyaa | Torrent Download | Magnet Link (10.03 GB) | NZB
Date Submitted02/11/2017 01:06
Series (!)Shokugeki no Souma
CommentFormat                                   : MatroskaFormat version                           : Version 4 / Version 2File size                                : 493 MiBDuration                                 : 25 min 44 sOverall bit rate                         : 2 677 kb/sEncoded date                             : UTC 2017-09-06 08:11:22Writing application                      : mkvmerge v9.6.0 ('Slave To Your Mind') 64bitWriting library                          : libebml v1.3.4 + libmatroska v1.4.5VideoID                                       : 1Format                                   : HEVCFormat/Info                              : High Efficiency Video CodingFormat profile                           : Main 10@L4@MainCodec ID                                 : V_MPEGH/ISO/HEVCDuration                                 : 25 min 44 sBit rate                                 : 2 572 kb/sWidth                                    : 1 920 pixelsHeight                                   : 1 080 pixelsDisplay aspect ratio                     : 16:9Frame rate mode                          : ConstantFrame rate                               : 23.976 (24000/1001) FPSColor space                              : YUVChroma subsampling                       : 4:2:0Bit depth                                : 10 bitsBits/(Pixel*Frame)                       : 0.052Stream size                              : 473 MiB (96%)Writing library                          : x265 2.1+69-c97c64ab8b8e:[Windows][GCC 6.2.0][64 bit] 10bitEncoding settings                        : cpuid=1173503 / frame-threads=2 / numa-pools=4 / wpp / no-pmode / no-pme / no-psnr / no-ssim / log-level=2 / input-csp=1 / input-res=1920x1080 / interlace=0 / total-frames=37032 / level-idc=0 / high-tier=1 / uhd-bd=0 / ref=4 / no-allow-non-conformance / no-repeat-headers / annexb / no-aud / no-hrd / info / hash=0 / no-temporal-layers / open-gop / min-keyint=23 / keyint=250 / bframes=4 / b-adapt=2 / b-pyramid / bframe-bias=0 / rc-lookahead=25 / lookahead-slices=4 / scenecut=40 / no-intra-refresh / ctu=64 / min-cu-size=8 / rect / no-amp / max-tu-size=32 / tu-inter-depth=1 / tu-intra-depth=1 / limit-tu=0 / rdoq-level=2 / signhide / no-tskip / nr-intra=0 / nr-inter=0 / no-constrained-intra / strong-intra-smoothing / max-merge=3 / limit-refs=3 / limit-modes / me=3 / subme=3 / merange=57 / temporal-mvp / weightp / no-weightb / no-analyze-src-pics / deblock=0:0 / sao / no-sao-non-deblock / rd=4 / no-early-skip / rskip / no-fast-intra / no-tskip-fast / no-cu-lossless / no-b-intra / rdpenalty=0 / psy-rd=2.00 / psy-rdoq=1.00 / no-rd-refine / analysis-mode=0 / no-lossless / cbqpoffs=0 / crqpoffs=0 / rc=crf / crf=19.0 / qcomp=0.60 / qpstep=4 / stats-write=0 / stats-read=0 / ipratio=1.40 / pbratio=1.30 / aq-mode=1 / aq-strength=1.00 / cutree / zone-count=0 / no-strict-cbr / qg-size=32 / no-rc-grain / qpmax=69 / qpmin=0 / sar=0 / overscan=0 / videoformat=5 / range=0 / colorprim=2 / transfer=2 / colormatrix=2 / chromaloc=0 / display-window=0 / max-cll=0,0 / min-luma=0 / max-luma=1023 / log2-max-poc-lsb=8 / vui-timing-info / vui-hrd-info / slices=1 / opt-qp-pps / opt-ref-list-length-pps / no-multi-pass-opt-rps / scenecut-bias=0.05Default                                  : YesForced                                   : NoAudioID                                       : 2Format                                   : AACFormat/Info                              : Advanced Audio CodecFormat profile                           : LCCodec ID                                 : A_AACDuration                                 : 25 min 0 sBit rate                                 : 91.5 kb/sChannel(s)                               : 2 channelsChannel positions                        : Front: L RSampling rate                            : 48.0 kHzFrame rate                               : 46.875 FPS (1024 spf)Compression mode                         : LossyDelay relative to video                  : 9 msStream size                              : 16.4 MiB (3%)Language                                 : EnglishDefault                                  : NoForced                                   : NoText #1ID                                       : 3Format                                   : PGSMuxing mode                              : zlibCodec ID                                 : S_HDMV/PGSCodec ID/Info                            : Picture based subtitle format used on BDs/HD-DVDsDuration                                 : 24 min 54 sBit rate                                 : 2 314 b/sCount of elements                        : 115Stream size                              : 422 KiB (0%)Language                                 : EnglishDefault                                  : NoForced                                   : NoText #2ID                                       : 4Format                                   : PGSMuxing mode                              : zlibCodec ID                                 : S_HDMV/PGSCodec ID/Info                            : Picture based subtitle format used on BDs/HD-DVDsDuration                                 : 24 min 54 sBit rate                                 : 12.3 kb/sCount of elements                        : 564Stream size                              : 2.19 MiB (0%)Language                                 : EnglishDefault                                  : NoForced                                   : NoMenu00:00:00.000                             : en:Chapter 0100:03:59.989                             : en:Chapter 0200:05:29.996                             : en:Chapter 0300:11:49.041                             : en:Chapter 0400:22:03.989                             : en:Chapter 0500:23:33.995                             : en:Chapter 0600:24:38.018                             : en:Chapter 0700:24:59.498                             : en:Chapter 08
Tracker(s)
udp://tracker.opentrackr.org:1337/announceS: 0L: 2C: 0U: 1hr, 30min ago
udp://tracker.coppersurfer.tk:6969/announceS: 0L: 3C: 22U: 3hr, 1min ago
udp://tracker.leechers-paradise.org:6969/announceS: 1L: 3C: 2U: 3hr, 15min ago
udp://tracker.zer0day.to:1337/announceS: 1L: 2C: 12U: 4hr, 42min ago
http://nyaa.tracker.wf:7777/announceS: 0L: 2C: 0U: 1hr, 20min ago
Files
492.9 MB
426.5 MB
393.3 MB
360.5 MB
426.3 MB
462.5 MB
395.1 MB
460.5 MB
415.1 MB
424.3 MB
488.8 MB
419.0 MB
427.3 MB
453.1 MB
413.0 MB
450.1 MB
510.4 MB
401.3 MB
359.8 MB
379.1 MB
383.4 MB
416.0 MB
427.2 MB
480.9 MB
SubtitlesAll Attachments



0 comment(s):
Add new comment
Name:
Comment Type:
Message:Please be aware of the following before commenting:
  • Anime Tosho provides a mirror of torrents and is not the source. Please understand that uploaders/submitters may not read comments here, so you should check the Source Links section near the top of this page if you wish to contact them
  • Expired links do NOT get reuploaded as files are deleted after we process them
  • Uploads are NOT instant, so please wait for them to be processed
  • The entire uploading process is done by a bot which does NOT read any comments, so asking for links will have no effect on when they show up
  • Critical comments are welcome, however note that statements such as "X is crap" or "Y sucks" are NOT criticisms and aren't useful to anyone. Please back such statements up with reasoning to be both informative and demonstrate that you aren't just some whiney kid.
Image Verification:

Our squiggly text game where the aim is to copy the image into the textbox. All characters are upper case, and there are no zeros (0) and ones (1) in the above image. Apparently bots aren't as good as humans at this game.
beta
Anime DDL+NZB mirror
Current Time: 19/11/2017 19:40



About/FAQs