[Omar Hidan] Ōban Star-Racers 01 [1080P][360E8839].mp4


Source LinksNyaa | Torrent Download | Magnet Link (354.4 MB) | NZB | Website
Date Submitted12/05/2018 20:07
Series (!)Oban Star-Racers - Episode 1 (of 26): A Fresh Start
CommentRemastered Ver.Include: Textless Opening & Closing SongsDDL: https://mega.nz/#!a1pjWTwA!1RThltar3xlWcEQ3241nsG44ecMUzsyRyyjfjyiBbtIOn Vimeo: https://vimeo.com/channels/1251886/219784024![](https://i.imgur.com/z16Ci8u.jpg )![](https://i.imgur.com/XYEDrt0.jpg )GeneralComplete name : D:\anime raw\Omar Hidan\[Omar Hidan] Ōban Star-Racers 01 [1080P][360E8839].mp4Format : MPEG-4Format profile : Base Media / Version 2Codec ID : mp42 (mp42/mp41/isom/avc1)File size : 354 MiBDuration : 27 min 0 sOverall bit rate mode : VariableOverall bit rate : 1 835 kb/sEncoded date : UTC 2017-06-01 05:20:46Tagged date : UTC 2017-06-01 05:20:46VideoID : 1Format : AVCFormat/Info : Advanced Video CodecFormat profile : High@L4Format settings, CABAC : YesFormat settings, RefFrames : 4 framesCodec ID : avc1Codec ID/Info : Advanced Video CodingDuration : 27 min 0 sBit rate : 1 703 kb/sWidth : 1 920 pixelsHeight : 1 080 pixelsDisplay aspect ratio : 16:9Frame rate mode : ConstantFrame rate : 23.976 (24000/1001) FPSColor space : YUVChroma subsampling : 4:2:0Bit depth : 8 bitsScan type : ProgressiveBits/(Pixel*Frame) : 0.034Stream size : 329 MiB (93%)Writing library : x264 core 150 r10 df79067Encoding settings : cabac=1 / ref=4 / deblock=1:0:0 / analyse=0x3:0x113 / me=hex / subme=8 / psy=1 / psy_rd=1.00:0.00 / mixed_ref=1 / me_range=16 / chroma_me=1 / trellis=2 / 8x8dct=1 / cqm=0 / deadzone=21,11 / fast_pskip=1 / chroma_qp_offset=-2 / threads=34 / lookahead_threads=5 / sliced_threads=0 / nr=0 / decimate=1 / interlaced=0 / bluray_compat=0 / stitchable=1 / constrained_intra=0 / bframes=3 / b_pyramid=2 / b_adapt=1 / b_bias=0 / direct=3 / weightb=1 / open_gop=0 / weightp=2 / keyint=infinite / keyint_min=23 / scenecut=40 / intra_refresh=0 / rc_lookahead=50 / rc=crf / mbtree=1 / crf=20.0 / qcomp=0.60 / qpmin=5 / qpmax=69 / qpstep=4 / vbv_maxrate=4950 / vbv_bufsize=13500 / crf_max=0.0 / nal_hrd=none / filler=0 / ip_ratio=1.40 / aq=1:1.00Encoded date : UTC 2017-06-01 05:20:46Tagged date : UTC 2017-06-01 05:20:46Color range : LimitedColor primaries : BT.709Transfer characteristics : BT.709Matrix coefficients : BT.709AudioID : 2Format : AACFormat/Info : Advanced Audio CodecFormat profile : LCCodec ID : 40Duration : 27 min 0 sBit rate mode : VariableBit rate : 128 kb/sChannel(s) : 2 channelsChannel(s)_Original : 1 channelChannel positions : Front: CSampling rate : 48.0 kHzFrame rate : 46.875 FPS (1024 SPF)Compression mode : LossyStream size : 24.7 MiB (7%)Encoded date : UTC 2017-06-01 05:20:46Tagged date : UTC 2017-06-01 05:20:46
Tracker(s)
udp://tracker.openbittorrent.com:80/announce-
udp://tracker.publicbt.com:80/announce-
udp://tracker.opentrackr.org:1337/announceS: 0L: 0C: 0U: 124d, 18hr, 40min ago
udp://tracker.coppersurfer.tk:6969/announceScrape failedU: 190d, 1hr, 47min ago
udp://tracker.leechers-paradise.org:6969/announceS: 0L: 0C: 0U: 68d, 15hr, 53min ago
http://nyaa.tracker.wf:7777/announceS: 0L: 0C: 85U: 68d, 5hr, 17min ago
udp://open.stealth.si:80/announceS: 0L: 0C: 0U: 59d, 4hr, 58min ago
File Name (Size)[Omar Hidan] Ōban Star-Racers 01 [1080P][360E8839].mp4 (354.4 MB)
DownloadClickNUpload | Go4Up | Jheberg | MultiUp
  • BdUpload
  • DownAce
  • Fichier
  • FileCloud
  • Filerio
  • FilesCdn
  • IndiShare
  • Kbagi
  • Turbobit
  • UpToBox
  • Uppit
| OpenLoad | SolidFiles | ZippyShare
Sendspace: Part1, Part2
Encrypted DownloadDirect
Password:
Screenshots
screenshotscreenshotscreenshotscreenshotscreenshot



0 comment(s):
Add new comment
Name:
Comment Type:
Message:Please be aware of the following before commenting:
  • Anime Tosho provides a mirror of torrents and is not the source. Please understand that uploaders/submitters may not read comments here, so you should check the Source Links section near the top of this page if you wish to contact them
  • Expired links do NOT get reuploaded as files are deleted after we process them
  • Uploads are NOT instant, so please wait for them to be processed
  • The entire uploading process is done by a bot which does NOT read any comments, so asking for links will have no effect on when they show up
  • Critical comments are welcome, however note that statements such as "X is crap" or "Y sucks" are NOT criticisms and aren't useful to anyone. Please back such statements up with reasoning to be both informative and demonstrate that you aren't just some whiney kid.
Image Verification:

Our squiggly text game where the aim is to copy the image into the textbox. All characters are upper case, and there are no zeros (0) and ones (1) in the above image. Apparently bots aren't as good as humans at this game.
beta
Anime DDL+NZB mirror
Current Time: 22/10/2019 12:50



About/FAQs