Mob Psycho 100 V2_BD720p_English Subbed_(HEVC_10bit_SmoodFlamez)


Source LinksNyaa | Torrent Download | Magnet Link (2.682 GB) | NZB
Date Submitted25/05/2018 16:35
Series (!)Mob Psycho 100
CommentTitleMob Psycho 100https://i.imgur.com/HT43GhS.jpgSourceDmonHiroStorylineKageyama Shigeo (a.k.a."Mob")is a 8th grader with psychic abilities.He could bend spoon and lift each objects with his mind from young age, but he slowly begin to withhold from using his ability on public due to the negative attention he keep receiving.Now, the only thing he wants is to become a friend with a girl in his class, Tsubomi. With his psychic"mentor"( who has no psychic power), he continues his daily lifes, attempting to realize his purpose on life.DetailsGenres: Animation | Action | Comedy | FantasyRelease Date: 11 July 2016 (Japan)VideoID : 1Format : HEVCFormat/Info : High Efficiency Video CodingFormat profile : Main 10@L3.1@MainCodec ID : V_MPEGH/ISO/HEVCDuration : 24 min 11 sWidth : 1 280 pixelsHeight : 720 pixelsDisplay aspect ratio : 16:9Frame rate mode : ConstantFrame rate : 23.976 (24000/1001) FPSColor space : YUVChroma subsampling : 4:2:0Bit depth : 10 bitsAudioID : 2Format : VorbisFormat settings, Floor : 1Codec ID : A_VORBISDuration : 24 min 11 sBit rate mode : VariableBit rate : 96.0 kb/sChannel(s) : 2 channelsSampling rate : 48.0 kHzFrame rate : 63.418 FPS (757 SPF)Compression mode : LossyDelay relative to video : 9 msStream size : 15.0 MiB (6%)Writing library : libVorbis (⛄⛄⛄⛄) (20150105 (⛄⛄⛄⛄))Language : JapaneseDefault : YesForced : NoComment : Processed by SoXTextID : 3Format : ASSCodec ID : S_TEXT/ASSCodec ID/Info : Advanced Sub Station AlphaDuration : 22 min 29 sBit rate : 258 b/sCount of elements : 448Compression mode : LosslessStream size : 42.6 KiB (0%)Default : NoScreenshotshttps://i.imgur.com/eKwbd3r.pnghttps://i.imgur.com/lQshqHV.pngFont Included
Tracker(s)
udp://tracker.opentrackr.org:1337/announceS: 0L: 3C: 0U: 95d, 1hr, 53min ago
udp://tracker.coppersurfer.tk:6969/announceScrape failedU: 65d, 19hr, 2min ago
udp://tracker.leechers-paradise.org:6969/announceS: 0L: 1C: 0U: 124d, 11hr, 35min ago
udp://p4p.arenabg.ch:1337/announceScrape failedU: 3d, 46min ago
udp://tracker.torrent.eu.org:451/announceS: 0L: 1C: 0U: 2d, 17hr, 28min ago
udp://tracker.pirateparty.gr:6969/announceScrape failedU: 2d, 9hr, 42min ago
udp://public.popcorn-tracker.org:6969/announceScrape failedU: 4d, 19hr, 32min ago
http://nyaa.tracker.wf:7777/announceS: 0L: 1C: 41U: 118d, 15hr, 14min ago
udp://tracker.tiny-vps.com:6969/announceS: 0L: 1C: 0U: 46d, 14hr, 18min ago
udp://tracker.vanitycore.co:6969/announceScrape failedU: 2d, 17hr ago
udp://open.stealth.si:80/announceS: 0L: 3C: 0U: 94d, 6hr, 34min ago
Files
231.2 MB
258.4 MB
241.1 MB
244.2 MB
166.2 MB
249.8 MB
221.4 MB
212.5 MB
198.6 MB
229.3 MB
247.2 MB
239.1 MB
7.905 MB
SubtitlesAll Attachments



0 comment(s):
Add new comment
Name:
Comment Type:
Message:Please be aware of the following before commenting:
  • Anime Tosho provides a mirror of torrents and is not the source. Please understand that uploaders/submitters may not read comments here, so you should check the Source Links section near the top of this page if you wish to contact them
  • Expired links do NOT get reuploaded as files are deleted after we process them
  • Uploads are NOT instant, so please wait for them to be processed
  • The entire uploading process is done by a bot which does NOT read any comments, so asking for links will have no effect on when they show up
  • Critical comments are welcome, however note that statements such as "X is crap" or "Y sucks" are NOT criticisms and aren't useful to anyone. Please back such statements up with reasoning to be both informative and demonstrate that you aren't just some whiney kid.
Image Verification:

Our squiggly text game where the aim is to copy the image into the textbox. All characters are upper case, and there are no zeros (0) and ones (1) in the above image. Apparently bots aren't as good as humans at this game.
beta
Anime DDL+NZB mirror
Current Time: 19/11/2019 20:07



About/FAQs