Mob Psycho 100 [2016] (Series+Manga+OSTs) 1080p BDRip x265 PCM 2.0 Kira [SEV]


This torrent has not been fetched due to skipping policy - please see source links for more information.
Source LinksNyaa | Torrent Download | Magnet Link (47.12 GB)
Date Submitted18/09/2019 08:26
Series (!)Mob Psycho 100
Comment![alt text](https://extraimage.net/images/2019/06/08/77e1e488eaca1964f1270c1f77946360.md.png "SEV")Note : Source used is a Hyrbid REMUX. Video and JAP audio is from JAP BD and English audio is from US BD. I simply kept the best as usual.File directory is as follows :-Mob Psycho 100 (root)|--> Arts|--> Manga [2012-2018] |--> [English Translated] Mob Psycho 100 |--> [Japanese RAW] Mob Psycho 100|--> Mob Psycho 100 [2016] COMPLETE 1080p BDRip x265 PCM 2.0 Kira [SEV] |--> Extras |-->Shorts|--> Original Soundtracks [2016-2019] |--> Mob Psycho 100 - Original Soundtrack [2016] |--> Mob Psycho 100 II - Original Soundtrack [2019] |--> OP_EDScreenshot'sSource :-https://extraimage.net/image/SEGYhttps://extraimage.net/image/SEGphttps://extraimage.net/image/SEGrhttps://extraimage.net/image/SEGGEncode :-https://extraimage.net/image/SEGPhttps://extraimage.net/image/SEGXhttps://extraimage.net/image/SEGghttps://extraimage.net/image/SEG5Media Information```GeneralUnique ID : 311642505597812619438932085543811100373 (0xEA7429D123C6FFA8E1AA220EC11B2ED5)Complete name : Mob Psycho 100 - 01 1080p BDRip x265 PCM 2.0 Kira [SEV].mkvFormat : MatroskaFormat version : Version 4File size : 3.54 GiBDuration : 24 min 11 sOverall bit rate mode : VariableOverall bit rate : 21.0 Mb/sMovie name : Mob Psycho 100 : 01 : Self-Proclaimed Psychic : Arataka Reigen ~And Mob~Encoded date : UTC 2019-08-13 05:58:20Writing application : mkvmerge v36.0.0 ('Is That Jazz?') 64-bitWriting library : libebml v1.3.9 + libmatroska v1.5.2VideoID : 1Format : HEVCFormat/Info : High Efficiency Video CodingFormat profile : Main 10@L4@MainCodec ID : V_MPEGH/ISO/HEVCDuration : 24 min 11 sBit rate : 15.7 Mb/sWidth : 1 920 pixelsHeight : 1 080 pixelsDisplay aspect ratio : 16:9Frame rate mode : ConstantFrame rate : 23.976 (24000/1001) FPSColor space : YUVChroma subsampling : 4:2:0Bit depth : 10 bitsBits/(Pixel*Frame) : 0.317Stream size : 2.66 GiB (75%)Title : Mob Psycho 100 : 01 : Self-Proclaimed Psychic : Arataka Reigen ~And Mob~Writing library : x265 3.1+11-de920e0a3183:[Windows][MSVC 1922][64 bit] 10bitEncoding settings : cpuid=1111039 / frame-threads=2 / numa-pools=4 / wpp / no-pmode / no-pme / no-psnr / no-ssim / log-level=2 / input-csp=1 / input-res=1920x1080 / interlace=0 / total-frames=34812 / level-idc=0 / high-tier=1 / uhd-bd=0 / ref=5 / no-allow-non-conformance / no-repeat-headers / annexb / no-aud / no-hrd / info / hash=0 / no-temporal-layers / open-gop / min-keyint=23 / keyint=250 / gop-lookahead=0 / bframes=8 / b-adapt=2 / b-pyramid / bframe-bias=0 / rc-lookahead=100 / lookahead-slices=0 / scenecut=40 / radl=0 / no-splice / no-intra-refresh / ctu=64 / min-cu-size=8 / no-rect / no-amp / max-tu-size=32 / tu-inter-depth=3 / tu-intra-depth=3 / limit-tu=4 / rdoq-level=2 / dynamic-rd=0.00 / no-ssim-rd / signhide / no-tskip / nr-intra=0 / nr-inter=0 / no-constrained-intra / no-strong-intra-smoothing / max-merge=4 / limit-refs=1 / limit-modes / me=3 / subme=7 / merange=92 / temporal-mvp / no-hme / weightp / weightb / no-analyze-src-pics / deblock=0:0 / sao / no-sao-non-deblock / rd=6 / no-early-skip / rskip / no-fast-intra / no-tskip-fast / no-cu-lossless / b-intra / no-splitrd-skip / rdpenalty=0 / psy-rd=2.00 / psy-rdoq=1.00 / no-rd-refine / no-lossless / cbqpoffs=0 / crqpoffs=0 / rc=crf / crf=16.7 / qcomp=0.60 / qpstep=4 / stats-write=0 / stats-read=0 / ipratio=1.40 / pbratio=1.30 / aq-mode=3 / aq-strength=1.80 / cutree / zone-count=0 / no-strict-cbr / qg-size=32 / no-rc-grain / qpmax=69 / qpmin=0 / no-const-vbv / sar=0 / overscan=0 / videoformat=5 / range=0 / colorprim=2 / transfer=2 / colormatrix=2 / chromaloc=0 / display-window=0cll=0,0 / min-luma=0 / max-luma=1023 / log2-max-poc-lsb=8 / vui-timing-info / vui-hrd-info / slices=1 / no-opt-qp-pps / no-opt-ref-list-length-pps / no-multi-pass-opt-rps / scenecut-bias=0.05 / no-opt-cu-delta-qp / no-aq-motion / no-hdr / no-hdr-opt / no-dhdr10-opt / no-idr-recovery-sei / analysis-reuse-level=5 / scale-factor=0 / refine-intra=0 / refine-inter=0 / refine-mv=0 / refine-ctu-distortion=0 / no-limit-sao / ctu-info=0 / no-lowpass-dct / refine-analysis-type=0 / copy-pic=1 / max-ausize-factor=1.0 / no-dynamic-refine / no-single-sei / no-hevc-aq / no-svt / no-field / qp-adaptation-range=1.00Language : JapaneseDefault : YesForced : NoAudio #1ID : 2Format : PCMFormat settings : Little / SignedCodec ID : A_PCM/INT/LITDuration : 24 min 11 sBit rate mode : ConstantBit rate : 2 304 kb/sChannel(s) : 2 channelsSampling rate : 48.0 kHzFrame rate : 200.000 FPS (240 SPF)Bit depth : 24 bitsStream size : 399 MiB (11%)Title : Japanese Org BD PCM DD_2.0 @ 2304 KbpsLanguage : JapaneseDefault : YesForced : NoAudio #2ID : 3Format : MLP FBAFormat/Info : Meridian Lossless Packing FBACommercial name : Dolby TrueHDCodec ID : A_TRUEHDDuration : 24 min 10 sBit rate mode : VariableBit rate : 2 823 kb/sMaximum bit rate : 3 996 kb/sChannel(s) : 6 channelsChannel layout : L R C LFE Ls RsSampling rate : 48.0 kHzFrame rate : 1 200.000 FPS (40 SPF)Compression mode : LosslessStream size : 488 MiB (13%)Title : English Org BD TrueHD DD_5.1 @ 2823 KbpsLanguage : EnglishDefault : NoForced : NoText #1ID : 4Format : PGSMuxing mode : zlibCodec ID : S_HDMV/PGSCodec ID/Info : Picture based subtitle format used on BDs/HD-DVDsDuration : 22 min 29 sBit rate : 60.3 kb/sCount of elements : 899Stream size : 9.71 MiB (0%)Title : English (Full) Org BD PGS SubLanguage : EnglishDefault : YesForced : NoText #2ID : 5Format : PGSMuxing mode : zlibCodec ID : S_HDMV/PGSCodec ID/Info : Picture based subtitle format used on BDs/HD-DVDsDuration : 22 min 29 sBit rate : 12.6 kb/sCount of elements : 168Stream size : 2.03 MiB (0%)Title : English (Signs & Songs) Org BD PGS SubLanguage : EnglishDefault : NoForced : NoMenu00:00:00.000 : en:Chapter 0100:07:56.017 : en:Chapter 0200:09:25.982 : en:Chapter 0300:13:08.954 : en:Chapter 0400:22:24.468 : en:Chapter 0500:23:55.934 : en:Chapter 06```Source Information```Mob Psycho 100 S01 Hybrid REMUX (JAP-BD + US-BD) (86.19 GB)```We have no issue with individuals posting or re-uploading our torrents on a platform we aren't on. However, if this is something you'd like to do, please do so in a 'as-is' format. We ask that you do not create a new torrent, include all descriptions you see above including the SEV logo, tags, notes and screenshots. If you'd like to become a permanent poster on a website we don't post to, feel free to get in contact with a Sublime Encoded Video member.We are recruiting/training new members for SEV & seedbox providers as well as people to help out with subtitles.As you already know, we deliver quality, so you know the standard.If you're interested, feel free to contact any of the team members.
Tracker(s)
udp://tracker.opentrackr.org:1337/announceS: 2L: 3C: 49U: 8hr, 1min ago
udp://tracker.coppersurfer.tk:6969/announceScrape failedU: 7d, 9hr, 49min ago
udp://tracker.internetwarriors.net:1337/announce-
http://anidex.moe:6969/announceS: 2L: 3C: 12U: 4d, 3hr, 48min ago
udp://exodus.desync.com:6969/announce-
udp://9.rarbg.me:2710/announceS: 2L: 3C: 136U: 7hr, 57min ago
http://tracker3.itzmx.com:6961/announceS: 3L: 5C: 0U: 7hr, 55min ago
udp://tracker.leechers-paradise.org:6969/announceS: 2L: 3C: 2U: 2d, 4hr, 42min ago
udp://explodie.org:6969/announceS: 2L: 3C: 9U: 15hr, 27min ago
udp://tracker.torrent.eu.org:451/announceS: 2L: 2C: 30U: 7hr, 46min ago
udp://thetracker.org:80/announceScrape failedU: 7hr, 39min ago
udp://ipv4.tracker.harry.lu:80/announceScrape failedU: 7hr, 37min ago
http://explodie.org:6969/announceS: 2L: 3C: 9U: 7hr, 37min ago
udp://tracker.cyberia.is:6969/announceS: 2L: 2C: 29U: 7hr, 26min ago
http://nyaa.tracker.wf:7777/announceS: 1L: 6C: 24U: 6d, 12hr, 55min ago
udp://tracker.justseed.it:1337/announceS: 0L: 0C: 0U: 7hr, 26min ago
udp://open.stealth.si:80/announceScrape failedU: 22hr, 20min ago
udp://retracker.lanta-net.ru:2710/announceS: 3L: 3C: 8U: 6hr, 56min ago
http://open.acgnxtracker.com:80/announceScrape failedU: 14hr, 1min ago
udp://denis.stalker.upeer.me:6969/announceS: 2L: 3C: 34U: 13hr, 59min ago



0 comment(s):
Add new comment
Name:
Comment Type:
Message:Please be aware of the following before commenting:
  • Anime Tosho provides a mirror of torrents and is not the source. Please understand that uploaders/submitters may not read comments here, so you should check the Source Links section near the top of this page if you wish to contact them
  • Expired links do NOT get reuploaded as files are deleted after we process them
  • Uploads are NOT instant, so please wait for them to be processed
  • The entire uploading process is done by a bot which does NOT read any comments, so asking for links will have no effect on when they show up
  • Critical comments are welcome, however note that statements such as "X is crap" or "Y sucks" are NOT criticisms and aren't useful to anyone. Please back such statements up with reasoning to be both informative and demonstrate that you aren't just some whiney kid.
Image Verification:

Our squiggly text game where the aim is to copy the image into the textbox. All characters are upper case, and there are no zeros (0) and ones (1) in the above image. Apparently bots aren't as good as humans at this game.
beta
Anime DDL+NZB mirror
Current Time: 17/10/2019 14:24



About/FAQs