Source LinksNyaa | Torrent Download | Magnet Link (2.597 GB) | NZB
Date Submitted08/07/2019 18:36
Series (!)Gekijouban Dungeon ni Deai o Motomeru no wa Machigatte Iru Darouka: Orion no Ya - Complete Movie
Commentsource:Video[U3-Web] Gekijouban DanMachi : Orion no Ya (2019) [Movie][Multi-Subs][NFLX WEB-DL 1080p AVC E-AC-3https://nyaa.si/view/1156530sub:[Glitch] U3-Web Gekijouban DanMachi : Orion no Ya [English] (SUBS ONLY) https://nyaa.si/view/1157225VideoID : 1Format : AVCFormat/Info : Advanced Video CodecFormat profile : Main@L4Format settings, CABAC : YesFormat settings, RefFrames : 3 framesCodec ID : V_MPEG4/ISO/AVCDuration : 1 h 22 minBit rate mode : VariableBit rate : 4 420 kb/sMaximum bit rate : 6 630 kb/sWidth : 1 920 pixelsHeight : 1 080 pixelsDisplay aspect ratio : 16:9Frame rate mode : ConstantFrame rate : 23.976 (24000/1001) FPSColor space : YUVChroma subsampling : 4:2:0Bit depth : 8 bitsScan type : ProgressiveBits/(Pixel*Frame) : 0.089Stream size : 2.52 GiB (97%)Writing library : x264 core 148 r2715 7e75228AudioID : 2Format : E-AC-3Format/Info : Enhanced Audio Coding 3Format settings, Endianness : BigCodec ID : A_EAC3Duration : 1 h 22 minBit rate mode : ConstantBit rate : 128 kb/sChannel(s) : 2 channelsChannel positions : Front: L RSampling rate : 48.0 kHzFrame rate : 187.500 FPS (256 SPF)Compression mode : LossyStream size : 75.2 MiB (3%)Language : JapaneseService kind : Complete MainDefault : YesForced : No
Tracker(s)
udp://tracker.opentrackr.org:1337/announceS: 2L: 0C: 294U: 65d, 16hr, 42min ago
udp://tracker.coppersurfer.tk:6969/announceScrape failedU: 10d, 5hr, 5min ago
udp://exodus.desync.com:6969/announce-
http://nyaa.tracker.wf:7777/announceS: 3L: 0C: 368U: 56d, 11hr, 42min ago
udp://open.stealth.si:80/announceS: 3L: 0C: 193U: 67d, 22hr, 13min ago
File Name (Size)[U3-Web] Gekijouban Danmachi - Orion no Ya (2019) [NFLX WEB-DL 1080p AVC E-AC-3][CF076316] .mkv (2.597 GB)
DownloadJheberg: Part1, Part2
MultiUp: Part1
  • BdUpload
  • DownAce
  • Fichier
  • FileCloud
  • Filerio
  • FilesCdn
  • IndiShare
  • Kbagi
  • Turbobit
  • UpToBox
  • Uppit
, Part2
  • BdUpload
  • DownAce
  • Fichier
  • FileCloud
  • Filerio
  • FilesCdn
  • IndiShare
  • Kbagi
  • Turbobit
  • UpToBox
  • Uppit
, Part3
  • BdUpload
  • DownAce
  • Fichier
  • FileCloud
  • Filerio
  • FilesCdn
  • IndiShare
  • Kbagi
  • Turbobit
  • UpToBox
  • Uppit
, Part4
  • BdUpload
  • DownAce
  • Fichier
  • FileCloud
  • Filerio
  • FilesCdn
  • IndiShare
  • Kbagi
  • Turbobit
  • UpToBox
  • Uppit
, Part5
  • BdUpload
  • DownAce
  • Fichier
  • FileCloud
  • Filerio
  • FilesCdn
  • IndiShare
  • Kbagi
  • Turbobit
  • UpToBox
  • Uppit
, Part6
  • BdUpload
  • DownAce
  • Fichier
  • FileCloud
  • Filerio
  • FilesCdn
  • IndiShare
  • Kbagi
  • Turbobit
  • UpToBox
  • Uppit

OpenLoad: Part1, Part2, Part3
Sendspace: Part1, Part2, Part3, Part4, Part5, Part6, Part7, Part8, Part9
SolidFiles: Part1, Part2, Part3, Part4, Part5, Part6
ZippyShare: Part1, Part2, Part3, Part4, Part5, Part6
Screenshots
screenshotscreenshotscreenshotscreenshotscreenshot
SubtitlesAll Attachments | eng [SRT]



0 comment(s):
Add new comment
Name:
Comment Type:
Message:Please be aware of the following before commenting:
  • Anime Tosho provides a mirror of torrents and is not the source. Please understand that uploaders/submitters may not read comments here, so you should check the Source Links section near the top of this page if you wish to contact them
  • Expired links do NOT get reuploaded as files are deleted after we process them
  • Uploads are NOT instant, so please wait for them to be processed
  • The entire uploading process is done by a bot which does NOT read any comments, so asking for links will have no effect on when they show up
  • Critical comments are welcome, however note that statements such as "X is crap" or "Y sucks" are NOT criticisms and aren't useful to anyone. Please back such statements up with reasoning to be both informative and demonstrate that you aren't just some whiney kid.
Image Verification:

Our squiggly text game where the aim is to copy the image into the textbox. All characters are upper case, and there are no zeros (0) and ones (1) in the above image. Apparently bots aren't as good as humans at this game.
beta
Anime DDL+NZB mirror
Current Time: 15/12/2019 19:14



About/FAQs