Kono Subarashii Sekai ni Shukufuku wo!_Comlete Batch Seasons 1+2+OVAs_(BD720p_HEVC_10bit_SmoodFlamez)


Source LinksNyaa | Torrent Download | Magnet Link (3.296 GB) | NZB
Date Submitted25/08/2019 14:23
Series (!)Kono Subarashii Sekai ni Shukufuku o!
CommentTitleKono Subarashii Sekai ni Shukufuku wo![img](https://i.imgur.com/gjog9nr.jpg[/img])Sources[Noem-light]DmonHiroSynopsisAfter dying a laughable and pathetic death on his way back from buying a game, high school student and recluse Kazuma Satou finds himself sitting before a beautiful but obnoxious goddess named Aqua. She provides the NEET with two options: continue on to heaven or reincarnate in every gamer's dream—a real fantasy world! Choosing to start a new life, Kazuma is quickly tasked with defeating a Demon King who is terrorizing villages. But before he goes, he can choose one item of any kind to aid him in his quest, and the future hero selects Aqua. But Kazuma has made a grave mistake—Aqua is completely useless!Unfortunately, their troubles don't end here; it turns out that living in such a world is far different from how it plays out in a game. Instead of going on a thrilling adventure, the duo must first work to pay for their living expenses. Indeed, their misfortunes have only just begun!InformationType: TVEpisodes: 10Status: Finished AiringAired: Jan 14, 2016 to Mar 17, 2016Premiered: Winter 2016Broadcast: Thursdays at 01:05 (JST)Producers: Half H.P Studio, Nippon Columbia, KlockWorx, Sony Music Communications, Toranoana, 81 Produce, Kadokawa Media HouseLicensors: CrunchyrollStudios: Studio DeenSource: Light novelGenres: Adventure, Comedy, Fantasy, Magic, Parody, SupernaturalDuration: 23 min. per ep.Rating: PG-13 - Teens 13 or older=========================================================================================VideoID : 1Format : HEVCFormat/Info : High Efficiency Video CodingFormat profile : Main 10@L5.1@HighCodec ID : V_MPEGH/ISO/HEVCDuration : 23 min 43 sBit rate : 566 kb/sWidth : 1 280 pixelsHeight : 720 pixelsDisplay aspect ratio : 16:9Frame rate mode : ConstantFrame rate : 23.976 (24000/1001) FPSColor space : YUVChroma subsampling : 4:2:0Bit depth : 10 bitsAudio #1ID : 2Format : OpusCodec ID : A_OPUSDuration : 23 min 43 sBit rate : 81.0 kb/sChannel(s) : 2 channelsChannel layout : L RSampling rate : 96.0 kHzFrame rate : 50.000 FPS (1920 SPF)Compression mode : LossyStream size : 13.7 MiB (10%)Title : MainLanguage : JapaneseDefault : YesForced : NoAudio #2ID : 3Format : OpusCodec ID : A_OPUSDuration : 23 min 43 sBit rate : 75.5 kb/sChannel(s) : 2 channelsChannel layout : L RSampling rate : 96.0 kHzFrame rate : 50.001 FPS (1920 SPF)Compression mode : LossyDelay relative to video : 20 msStream size : 12.8 MiB (9%)Title : CommentaryLanguage : JapaneseDefault : NoForced : NoTextID : 4Format : ASSCodec ID : S_TEXT/ASSCodec ID/Info : Advanced Sub Station AlphaDuration : 23 min 38 sBit rate : 7 863 b/sCount of elements : 12052Compression mode : LosslessStream size : 1.33 MiB (1%)Language : JapaneseDefault : NoForced : YesMenu00:00:00.000 : en:Chapter 1 - 00:00:00.00000:02:02.039 : en:Chapter 2 - 00:02:02.03900:03:32.003 : en:Chapter 3 - 00:03:32.00300:14:51.015 : en:Chapter 4 - 00:14:51.01500:22:01.987 : en:Chapter 5 - 00:22:01.98700:23:31.994 : en:Chapter 6 - 00:23:31.994===============================================================================Screenshots![img](https://i.imgur.com/Rd8rxF5.png[/img])![img](https://i.imgur.com/cAJKPy6.png[/img])
Tracker(s)
udp://tracker.opentrackr.org:1337/announceS: 10L: 3C: 191U: 5d, 19hr, 6min ago
udp://tracker.coppersurfer.tk:6969/announceScrape failedU: 20hr, 46min ago
udp://exodus.desync.com:6969/announce-
udp://eddie4.nl:6969/announceScrape failedU: 6hr, 40min ago
udp://tracker.zer0day.to:1337/announceScrape failedU: 13hr, 14min ago
http://nyaa.tracker.wf:7777/announceS: 10L: 7C: 250U: 2d, 22hr, 48min ago
udp://open.stealth.si:80/announceS: 6L: 3C: 128U: 5d, 18hr, 16min ago
Files
49.00 MB
258.5 MB
144.9 MB
145.9 MB
137.4 MB
139.1 MB
135.6 MB
183.5 MB
120.7 MB
108.8 MB
103.5 MB
159.9 MB
91.13 MB
139.7 MB
141.5 MB
129.5 MB
124.6 MB
145.2 MB
126.6 MB
120.3 MB
148.5 MB
114.0 MB
165.7 MB
136.6 MB
104.6 MB
SubtitlesAll Attachments



0 comment(s):
Add new comment
Name:
Comment Type:
Message:Please be aware of the following before commenting:
  • Anime Tosho provides a mirror of torrents and is not the source. Please understand that uploaders/submitters may not read comments here, so you should check the Source Links section near the top of this page if you wish to contact them
  • Expired links do NOT get reuploaded as files are deleted after we process them
  • Uploads are NOT instant, so please wait for them to be processed
  • The entire uploading process is done by a bot which does NOT read any comments, so asking for links will have no effect on when they show up
  • Critical comments are welcome, however note that statements such as "X is crap" or "Y sucks" are NOT criticisms and aren't useful to anyone. Please back such statements up with reasoning to be both informative and demonstrate that you aren't just some whiney kid.
Image Verification:

Our squiggly text game where the aim is to copy the image into the textbox. All characters are upper case, and there are no zeros (0) and ones (1) in the above image. Apparently bots aren't as good as humans at this game.
beta
Anime DDL+NZB mirror
Current Time: 18/09/2019 08:16



About/FAQs