[Komorebi] Violet Evergarden [BD 1080p x264-10bit FLAC]


This torrent has not been fetched due to skipping policy - please see source links for more information.
Source LinksNyaa | Torrent Download | Magnet Link (17.24 GB)
Date Submitted09/07/2018 13:10
Series (!)Violet Evergarden
CommentMy own raws with manually retimed Vivid-Asenshi subtitles. New scenes in episode 13 have been translated (missing from neko-raws). Thanks to the people who provided me with the extra translations and cpu time (you know who you are).A lot of effort was put into this, so if you enjoyed this release, please leave a thank you comment for both me and Vivid-Asenshi for providing the excellent translation and typesetting for this beautiful show.Mediainfo:```GeneralUnique ID : 204285464955804777299232683942622521156 (0x99AFF30CEFBEAA11C18ECB2E725FE744)Complete name : [Komorebi] Violet Evergarden [BD 1080p x264-10bit FLAC]\[Komorebi] Violet Evergarden 01 (BD 1080p) [58EB34D1].mkvFormat : MatroskaFormat version : Version 4 / Version 2File size : 1.45 GiBDuration : 23 min 41 sOverall bit rate mode : VariableOverall bit rate : 8 782 kb/sMovie name : [Komorebi] Violet Evergarden 01Encoded date : UTC 2018-07-09 10:34:42Writing application : mkvmerge v23.0.0 ('The Bride Said No') 64-bitWriting library : libebml v1.3.6 + libmatroska v1.4.9Attachments : RH-Sans.ttf / RH-Sans-Italic.ttf / FOT-KleePro-DB-Str.otf / IwaMinPro-Md-Kami.ttf / IwaOMinPro-Bd-Fate.ttf / justs.ttfVideoID : 1Format : AVCFormat/Info : Advanced Video CodecFormat profile : High 10@L5.1Format settings : CABAC / 16 Ref FramesFormat settings, CABAC : YesFormat settings, RefFrames : 16 framesCodec ID : V_MPEG4/ISO/AVCDuration : 23 min 41 sBit rate : 8 171 kb/sWidth : 1 920 pixelsHeight : 1 080 pixelsDisplay aspect ratio : 16:9Frame rate mode : ConstantFrame rate : 23.976 (24000/1001) FPSColor space : YUVChroma subsampling : 4:2:0Bit depth : 10 bitsScan type : ProgressiveBits/(Pixel*Frame) : 0.164Stream size : 1.35 GiB (93%)Title : EpisodeWriting library : x264 core 155 r2901 7d0ff22Encoding settings : cabac=1 / ref=16 / deblock=1:-3:-3 / analyse=0x3:0x133 / me=umh / subme=11 / psy=1 / psy_rd=0.70:0.00 / mixed_ref=1 / me_range=32 / chroma_me=1 / trellis=2 / 8x8dct=1 / cqm=0 / deadzone=21,11 / fast_pskip=0 / chroma_qp_offset=-2 / threads=12 / lookahead_threads=3 / sliced_threads=0 / nr=0 / decimate=0 / interlaced=0 / bluray_compat=0 / constrained_intra=0 / bframes=12 / b_pyramid=2 / b_adapt=2 / b_bias=0 / direct=3 / weightb=1 / open_gop=0 / weightp=2 / keyint=250 / keyint_min=23 / scenecut=40 / intra_refresh=0 / rc_lookahead=250 / rc=crf / mbtree=1 / crf=14.0 / qcomp=0.65 / qpmin=0 / qpmax=81 / qpstep=4 / ip_ratio=1.40 / aq=2:0.85Language : JapaneseDefault : YesForced : YesColor range : LimitedColor primaries : BT.709Transfer characteristics : BT.709Matrix coefficients : BT.709AudioID : 2Format : FLACFormat/Info : Free Lossless Audio CodecCodec ID : A_FLACDuration : 23 min 41 sBit rate mode : VariableBit rate : 600 kb/sChannel(s) : 2 channelsChannel positions : Front: L RSampling rate : 48.0 kHzFrame rate : 11.719 FPS (4096 SPF)Bit depth : 16 bitsStream size : 102 MiB (7%)Title : Japanese AudioWriting library : libFLAC 20080709 (UTC 2008-07-09)Language : JapaneseDefault : YesForced : YesTextID : 3Format : ASSCodec ID : S_TEXT/ASSCodec ID/Info : Advanced Sub Station AlphaDuration : 23 min 16 sBit rate : 104 b/sCount of elements : 338Compression mode : LosslessStream size : 17.9 KiB (0%)Title : English Subtitles [Vivid-Asenshi]Language : EnglishDefault : YesForced : YesMenu00:00:00.000 : :Intro00:02:35.030 : :Part A00:12:01.012 : :Part B```
Tracker(s)
udp://tracker.opentrackr.org:1337/announceS: 17L: 3C: 783U: 36d, 21hr, 2min ago
udp://tracker.coppersurfer.tk:6969/announceScrape failedU: 210d, 1hr, 29min ago
udp://tracker.leechers-paradise.org:6969/announceS: 10L: 0C: 3U: 63d, 20hr, 11min ago
http://nyaa.tracker.wf:7777/announceS: 33L: 7C: 3061U: 92d, 1hr, 16min ago
udp://open.stealth.si:80/announceS: 28L: 4C: 320U: 94d, 10hr, 4min ago



1 comment(s):
04/09/2019 03:44 — Anonymous
I know it's been forever, but does anyone wanna grab this link?
Add new comment
Name:
Comment Type:
Message:Please be aware of the following before commenting:
  • Anime Tosho provides a mirror of torrents and is not the source. Please understand that uploaders/submitters may not read comments here, so you should check the Source Links section near the top of this page if you wish to contact them
  • Expired links do NOT get reuploaded as files are deleted after we process them
  • Uploads are NOT instant, so please wait for them to be processed
  • The entire uploading process is done by a bot which does NOT read any comments, so asking for links will have no effect on when they show up
  • Critical comments are welcome, however note that statements such as "X is crap" or "Y sucks" are NOT criticisms and aren't useful to anyone. Please back such statements up with reasoning to be both informative and demonstrate that you aren't just some whiney kid.
Image Verification:

Our squiggly text game where the aim is to copy the image into the textbox. All characters are upper case, and there are no zeros (0) and ones (1) in the above image. Apparently bots aren't as good as humans at this game.
beta
Anime DDL+NZB mirror
Current Time: 15/11/2019 22:38



About/FAQs