Jujutsu Kaisen (2020) Season 1 S01 (1080p BluRay AV1 10bit Dual-Audio Opus 2.0 KaNNa)


Source LinksNyaa (cached) | Torrent Download | Magnet Link (3.998 GB) | NZB
Date Submitted08/12/2022 22:45
Series (!)Jujutsu Kaisen
CommentJujutsu Kaisen (2020) S01 (1080p BluRay AV1 10bit Dual Opus 2.0 Japanese + English KaNNa)
Tracker(s)
udp://tracker.opentrackr.org:1337/announceS: 117L: 96C: 9574U: 217d, 5hr, 13min ago
udp://exodus.desync.com:6969/announce-
udp://tracker.torrent.eu.org:451/announceS: 92L: 98C: 234U: 217d, 5hr ago
http://nyaa.tracker.wf:7777/announceS: 147L: 7C: 8975U: 217d, 4hr, 46min ago
udp://open.stealth.si:80/announceS: 90L: 101C: 2993U: 217d, 4hr, 39min ago
Files
11.04 MB
6.240 MB
16.73 MB
17.68 MB
164.2 MB
128.0 MB
148.4 MB
148.3 MB
124.2 MB
144.1 MB
197.9 MB
145.1 MB
147.1 MB
157.7 MB
133.4 MB
151.7 MB
134.4 MB
160.5 MB
239.3 MB
208.6 MB
238.8 MB
194.7 MB
178.7 MB
236.1 MB
158.6 MB
153.8 MB
184.0 MB
165.0 MB
SubtitlesAll Attachments



13 comment(s):
15/09/2023 19:35 — Anonymous
These are not dual audio. Japanese only.
15/09/2023 20:44 — Anonymous
The first 3 eps are dual audio, I expect the rest are too. 6,000 downloads on Nyaa and no complaints.
15/09/2023 21:02 — Anonymous
if only animetosho users did not use absolutely garbage video players and knew how to check mediainfo...........
13/11/2023 16:46 — Anonymous
Honestly, thanks for this.
13/11/2023 17:19 — Anonymous
Video
ID                                       : 1
Format                                   : AV1
Format/Info                              : AOMedia Video 1
Format profile                           : Main@L4.0
Codec ID                                 : V_AV1
Duration                                 : 23 min 56 s
Bit rate                                 : 1 187 kb/s
Width                                    : 1 920 pixels
Height                                   : 1 080 pixels
Display aspect ratio                     : 16:9
Frame rate mode                          : Constant
Frame rate                               : 23.976 (24000/1001) FPS
Color space                              : YUV
Chroma subsampling                       : 4:2:0
Bit depth                                : 10 bits
Bits/(Pixel*Frame)                       : 0.024
Stream size                              : 203 MiB (85%)
Title                                    : Jujutsu Kaisen (2020) - S01E17 (1080p AV1) [KaNNa]
Default                                  : Yes
Forced                                   : No
Color range                              : Limited

Audio #1
ID                                       : 2
Format                                   : Opus
Codec ID                                 : A_OPUS
Duration                                 : 23 min 56 s
Bit rate                                 : 61.4 kb/s
Channel(s)                               : 2 channels
Channel layout                           : L R
Sampling rate                            : 48.0 kHz
Frame rate                               : 50.000 FPS (960 SPF)
Bit depth                                : 32 bits
Compression mode                         : Lossy
Stream size                              : 10.5 MiB (4%)
Title                                    : Stereo (64k Opus) [KaNNa]
Language                                 : Japanese
Default                                  : Yes
Forced                                   : No
13/11/2023 17:20 — Anonymous
Audio #2
ID                                       : 3
Format                                   : Opus
Codec ID                                 : A_OPUS
Duration                                 : 23 min 55 s
Bit rate                                 : 61.9 kb/s
Channel(s)                               : 2 channels
Channel layout                           : L R
Sampling rate                            : 48.0 kHz
Frame rate                               : 50.000 FPS (960 SPF)
Bit depth                                : 32 bits
Compression mode                         : Lossy
Delay relative to video                  : 1 s 1 ms
Stream size                              : 10.6 MiB (4%)
Title                                    : Stereo (64k Opus) [KaNNa]
Language                                 : English
Default                                  : No
Forced                                   : No
13/11/2023 19:13 — Anonymous
please don't clutter the comments with information people can get by simply clicking the file names
13/11/2023 20:31 — Anonymous
+1
14/11/2023 15:12 — Anonymous
Lots of Newcomers to the AT. Be a gracious host.
14/11/2023 15:35 — Anonymous
so what would you have said, sounded gracious enough.
14/11/2023 21:26 — Anonymous
newcomers should learn to discern garbage
15/11/2023 15:56 — Ardiusdhinho
Typical elite snob
15/11/2023 19:13 — Anonymous
cope and seethe mud hut dweller
Add new comment
Name:
Comment Type:
Message:
Show formatting tags
<b>bold</b><i>italic</i><u>underline</u><s>strikethrough</s>
<code>code</code><sub>subscript</sub><sup>superscript</sup><spoiler>spoiler</spoiler>
<big>big</big><small>small</small><quote>quote</quote><a href="https://animetosho.org/">link</a>
Please be aware of the following before commenting:
  • Anime Tosho provides a mirror of torrents and is not the source. Please understand that uploaders/submitters may not read comments here, so you should check the Source Links section near the top of this page if you wish to contact them
  • Expired links do NOT get reuploaded as files are deleted after we process them
  • Uploads are NOT instant, so please wait for them to be processed. The entire uploading process is done by a bot which does NOT read any comments, so asking for links will have no effect on when they show up
  • Critical comments are welcome, however note that statements such as "X is crap" or "Y sucks" are NOT criticisms. Please provide reasoning with critical comments to be informative, helpful and allow for debate.
Image Verification:

Our squiggly text game where the aim is to copy the image into the textbox. All characters are upper case, and there are no zeros (0) and ones (1) in the above image. Apparently bots aren't as good as humans at this game.
beta
Anime DDL+NZB mirror
Current Time: 17/06/2024 10:38



About/FAQs

Discord