[Fuby] Miru Tights - 01v3 [1080p - AC3 2.0] / みるタイツ - 第1話 - 英訳/英語字幕


Source LinksNyaa | Torrent Download | Magnet Link (62.55 MB) | NZB
Date Submitted20/05/2019 23:03
Series (!)Miru Tights - Episode 1: School Commute Tights
CommentHopefully the final version until BDtights, I mean BDMV. Small fixes, aside from different audio codec of course.Thanks to gsk_ for the typesetting ^-^Simple information:Video: 1920x1080 H264 (High @L4.1) (TRUSS)Audio: AC3 2.0 (TRUSS)Subtitles: English (Fubudzuki)Metadata:Format : MatroskaFormat version : Version 4File size : 53.4 MiBDuration : 4 min 5 sOverall bit rate : 1 828 kb/sMovie name : EP01: Way to School TightsEncoded date : UTC 2019-05-20 22:35:44Writing application : mkvmerge v34.0.0 ('Sight and Seen') 64-bitWriting library : libebml v1.3.7 + libmatroska v1.5.0Attachments : OpenSans-Semibold.ttf / saru(sRB).TTF / aparajb.ttf / OpenSans-Semibold.ttf / saru(sRB).TTF / aparajb.ttfVideoID : 1Format : AVCFormat/Info : Advanced Video CodecFormat profile : High@L4.1Format settings : CABAC / 4 Ref FramesFormat settings, CABAC : YesFormat settings, Reference : 4 framesCodec ID : V_MPEG4/ISO/AVCDuration : 4 min 5 sBit rate : 1 603 kb/sWidth : 1 920 pixelsHeight : 1 080 pixelsDisplay aspect ratio : 16:9Frame rate mode : ConstantFrame rate : 23.976 (24000/1001) FPSColor space : YUVChroma subsampling : 4:2:0Bit depth : 8 bitsScan type : ProgressiveBits/(Pixel*Frame) : 0.032Stream size : 46.9 MiB (88%)Title : H264 H4.1Writing library : x264 core 157 r2935 545de2fEncoding settings : cabac=1 / ref=4 / deblock=1:0:0 / analyse=0x3:0x133 / me=tesa / subme=11 / psy=1 / psy_rd=1.00:0.00 / mixed_ref=1 / me_range=24 / chroma_me=1 / trellis=2 / 8x8dct=1 / cqm=0 / deadzone=21,11 / fast_pskip=0 / chroma_qp_offset=-2 / threads=12 / lookahead_threads=3 / sliced_threads=0 / nr=0 / decimate=1 / interlaced=0 / bluray_compat=0 / constrained_intra=0 / bframes=16 / b_pyramid=2 / b_adapt=2 / b_bias=0 / direct=3 / weightb=1 / open_gop=0 / weightp=2 / keyint=240 / keyint_min=24 / scenecut=40 / intra_refresh=0 / rc_lookahead=60 / rc=crf / mbtree=1 / crf=18.0 / qcomp=0.60 / qpmin=0 / qpmax=69 / qpstep=4 / vbv_maxrate=62500 / vbv_bufsize=78125 / crf_max=0.0 / nal_hrd=none / filler=0 / ip_ratio=1.40 / aq=1:1.00Language : JapaneseDefault : YesForced : NoColor range : LimitedColor primaries : BT.709Transfer characteristics : BT.709Matrix coefficients : BT.709AudioID : 2Format : AC-3Format/Info : Audio Coding 3Commercial name : Dolby DigitalCodec ID : A_AC3Duration : 4 min 5 sBit rate mode : ConstantBit rate : 192 kb/sChannel(s) : 2 channelsChannel layout : L RSampling rate : 44.1 kHzFrame rate : 28.711 FPS (1536 SPF)Bit depth : 16 bitsCompression mode : LossyStream size : 5.61 MiB (11%)Title : AC3 2.0Language : JapaneseService kind : Complete MainDefault : YesForced : NoTextID : 3Format : ASSCodec ID : S_TEXT/ASSCodec ID/Info : Advanced Sub Station AlphaDuration : 3 min 29 sBit rate : 682 b/sCount of elements : 185Compression mode : LosslessStream size : 17.4 KiB (0%)Title : EnglishLanguage : EnglishDefault : YesForced : NoMenu00:00:00.000 : en:Main00:03:15.000 : :ED
Tracker(s)
udp://tracker.openbittorrent.com:80/announce-
udp://tracker.opentrackr.org:1337/announceS: 18L: 0C: 735U: 5d, 6hr, 20min ago
udp://tracker.coppersurfer.tk:6969/announceScrape failedU: 12d, 17hr, 11min ago
udp://exodus.desync.com:6969/announce-
http://nyaa.tracker.wf:7777/announceS: 24L: 0C: 913U: 12d, 23hr, 36min ago
udp://open.stealth.si:80/announceScrape failedU: 13d, 6hr, 20min ago
Files
53.43 MB
9.117 MB
SubtitlesAll Attachments



0 comment(s):
Add new comment
Name:
Comment Type:
Message:Please be aware of the following before commenting:
  • Anime Tosho provides a mirror of torrents and is not the source. Please understand that uploaders/submitters may not read comments here, so you should check the Source Links section near the top of this page if you wish to contact them
  • Expired links do NOT get reuploaded as files are deleted after we process them
  • Uploads are NOT instant, so please wait for them to be processed
  • The entire uploading process is done by a bot which does NOT read any comments, so asking for links will have no effect on when they show up
  • Critical comments are welcome, however note that statements such as "X is crap" or "Y sucks" are NOT criticisms and aren't useful to anyone. Please back such statements up with reasoning to be both informative and demonstrate that you aren't just some whiney kid.
Image Verification:

Our squiggly text game where the aim is to copy the image into the textbox. All characters are upper case, and there are no zeros (0) and ones (1) in the above image. Apparently bots aren't as good as humans at this game.
beta
Anime DDL+NZB mirror
Current Time: 25/06/2019 04:40



About/FAQs