( Dragontime) Super Dragon Ball Heroes (2018) The Complete Series 1080P WEBRIP AAC2.0.H.264


Source LinksNyaa | Torrent Download | Magnet Link (2.069 GB) | NZB
Date Submitted19/01/2020 02:08
Series (!)Super Dragon Ball Heroes
CommentFormat : MatroskaFormat version : Version 4 / Version 2File size : 81.6 MiBDuration : 8 min 45 sOverall bit rate : 1 304 kb/sEncoded date : UTC 2020-01-18 12:41:30Writing application : mkvmerge v42.0.0 ('Overtime') 64-bitWriting library : libebml v1.3.10 + libmatroska v1.5.2VideoID : 1Format : AVCFormat/Info : Advanced Video CodecFormat profile : High@L4Format settings, CABAC : YesFormat settings, ReFrames : 3 framesCodec ID : V_MPEG4/ISO/AVCDuration : 8 min 44 sBit rate : 1 173 kb/sWidth : 1 920 pixelsHeight : 1 080 pixelsDisplay aspect ratio : 16:9Frame rate mode : ConstantFrame rate : 29.970 (30000/1001) FPSColor space : YUVChroma subsampling : 4:2:0Bit depth : 8 bitsScan type : ProgressiveBits/(Pixel*Frame) : 0.019Stream size : 73.4 MiB (90%)Writing library : x264 core 155 r2901 7d0ff22Language : JapaneseDefault : YesForced : NoColor range : LimitedColor primaries : BT.709Transfer characteristics : BT.709Matrix coefficients : BT.709AudioID : 2Format : AACFormat/Info : Advanced Audio CodecFormat profile : LCCodec ID : A_AACDuration : 8 min 45 sBit rate : 128 kb/sChannel(s) : 2 channelsChannel positions : Front: L RSampling rate : 44.1 kHzFrame rate : 43.066 FPS (1024 spf)Compression mode : LossyDelay relative to video : 23 msStream size : 8.01 MiB (10%)Language : JapaneseDefault : YesForced : NoTextID : 3Format : UTF-8Codec ID : S_TEXT/UTF8Codec ID/Info : UTF-8 Plain TextDuration : 8 min 29 sBit rate : 108 b/sCount of elements : 214Stream size : 6.74 KiB (0%)Language : EnglishDefault : YesForced : Yes
Tracker(s)
udp://tracker.leechers-paradise.org:6969S: 37L: 10C: 3481U: 1d, 12hr, 21min ago
udp://tracker.opentrackr.org:1337/announceS: 17L: 11C: 452U: 144d, 19hr, 2min ago
udp://tracker.coppersurfer.tk:6969/announceScrape failedU: 13d, 3hr, 51min ago
udp://exodus.desync.com:6969/announce-
udp://tracker.coppersurfer.tk:6969Scrape failedU: 1d, 12hr, 10min ago
udp://tracker.opentrackr.org:1337S: 34L: 13C: 20U: 3d, 10hr, 56min ago
http://nyaa.tracker.wf:7777/announceS: 16L: 1C: 473U: 144d, 2hr, 46min ago
udp://open.stealth.si:80/announceS: 6L: 0C: 570U: 3d, 17hr, 41min ago
udp://tracker.pirateparty.gr:6969Scrape failedU: 10hr, 38min ago
udp://eddie4.nl:696Scrape failedU: 1d, 3hr, 27min ago
Files
81.62 MB
113.1 MB
59.84 MB
57.00 MB
101.9 MB
139.7 MB
129.3 MB
127.5 MB
57.28 MB
163.9 MB
123.5 MB
153.1 MB
45.83 MB
133.0 MB
136.8 MB
142.4 MB
109.4 MB
122.6 MB
121.0 MB
SubtitlesAll Attachments



0 comment(s):
Add new comment
Name:
Comment Type:
Message:Please be aware of the following before commenting:
  • Anime Tosho provides a mirror of torrents and is not the source. Please understand that uploaders/submitters may not read comments here, so you should check the Source Links section near the top of this page if you wish to contact them
  • Expired links do NOT get reuploaded as files are deleted after we process them
  • Uploads are NOT instant, so please wait for them to be processed
  • The entire uploading process is done by a bot which does NOT read any comments, so asking for links will have no effect on when they show up
  • Critical comments are welcome, however note that statements such as "X is crap" or "Y sucks" are NOT criticisms and aren't useful to anyone. Please back such statements up with reasoning to be both informative and demonstrate that you aren't just some whiney kid.
Image Verification:

Our squiggly text game where the aim is to copy the image into the textbox. All characters are upper case, and there are no zeros (0) and ones (1) in the above image. Apparently bots aren't as good as humans at this game.
beta
Anime DDL+NZB mirror
Current Time: 09/07/2020 20:49



About/FAQs