Dragon Ball Super Part 9 1080P WEBRIP AAC2.0.H.264 Episodes 105-117 UNCUT


This torrent has not been fetched due to skipping policy - please see source links for more information.
Source LinksNyaa | Torrent Download | Magnet Link (17.04 GB)
Date Submitted10/08/2019 04:52
Series (!)Dragon Ball Super
CommentFormat : MatroskaFormat version : Version 4 / Version 2File size : 1.31 GiBDuration : 22 min 50 sOverall bit rate : 8 182 kb/sEncoded date : UTC 2019-08-07 05:36:46Writing application : mkvmerge v34.0.0 ('Sight and Seen') 64-bitWriting library : libebml v1.3.7 + libmatroska v1.5.0VideoID : 1Format : AVCFormat/Info : Advanced Video CodecFormat profile : High@L4Format settings, CABAC : YesFormat settings, ReFrames : 4 framesCodec ID : V_MPEG4/ISO/AVCDuration : 22 min 50 sBit rate : 7 926 kb/sWidth : 1 920 pixelsHeight : 1 080 pixelsDisplay aspect ratio : 16:9Frame rate mode : ConstantFrame rate : 23.976 FPSColor space : YUVChroma subsampling : 4:2:0Bit depth : 8 bitsScan type : ProgressiveBits/(Pixel*Frame) : 0.159Stream size : 1.26 GiB (97%)Language : EnglishDefault : YesForced : NoAudioID : 2Format : AACFormat/Info : Advanced Audio CodecFormat profile : LCCodec ID : A_AACDuration : 22 min 50 sBit rate : 253 kb/sChannel(s) : 2 channelsChannel positions : Front: L RSampling rate : 48.0 kHzFrame rate : 46.875 FPS (1024 spf)Compression mode : LossyDelay relative to video : -64 msStream size : 41.4 MiB (3%)Language : EnglishDefault : YesForced : No
Tracker(s)
udp://tracker.leechers-paradise.org:6969S: 0L: 1C: 0U: 2d, 38min ago
udp://tracker.opentrackr.org:1337/announceS: 1L: 2C: 31U: 14d, 9hr, 1min ago
udp://tracker.coppersurfer.tk:6969/announceScrape failedU: 15d, 1hr, 2min ago
udp://exodus.desync.com:6969/announce-
udp://tracker.coppersurfer.tk:6969Scrape failedU: 1d, 18hr, 7min ago
udp://tracker.opentrackr.org:1337S: 0L: 0C: 32U: 3d, 22hr, 18min ago
http://nyaa.tracker.wf:7777/announceS: 0L: 1C: 37U: 15d, 11hr, 40min ago
udp://open.stealth.si:80/announceS: 0L: 1C: 30U: 16d, 4hr, 51min ago
udp://tracker.pirateparty.gr:6969Scrape failedU: 2hr, 54min ago
udp://eddie4.nl:696Scrape failedU: 23hr, 23min ago



0 comment(s):
Add new comment
Name:
Comment Type:
Message:Please be aware of the following before commenting:
  • Anime Tosho provides a mirror of torrents and is not the source. Please understand that uploaders/submitters may not read comments here, so you should check the Source Links section near the top of this page if you wish to contact them
  • Expired links do NOT get reuploaded as files are deleted after we process them
  • Uploads are NOT instant, so please wait for them to be processed
  • The entire uploading process is done by a bot which does NOT read any comments, so asking for links will have no effect on when they show up
  • Critical comments are welcome, however note that statements such as "X is crap" or "Y sucks" are NOT criticisms and aren't useful to anyone. Please back such statements up with reasoning to be both informative and demonstrate that you aren't just some whiney kid.
Image Verification:

Our squiggly text game where the aim is to copy the image into the textbox. All characters are upper case, and there are no zeros (0) and ones (1) in the above image. Apparently bots aren't as good as humans at this game.
beta
Anime DDL+NZB mirror
Current Time: 23/09/2019 10:08



About/FAQs