Dragon Ball Super Episodes 92-104 English Dubbed Uncut Funimation 1080P WEBRIP AAC2.0.H.264


This torrent has not been fetched due to skipping policy - please see source links for more information.
Source LinksNyaa | Torrent Download | Magnet Link (16.95 GB)
Date Submitted29/06/2019 04:18
Series (!)Dragon Ball Super
CommentFormat : MatroskaFormat version : Version 4 / Version 2File size : 1.32 GiBDuration : 23 min 5 sOverall bit rate : 8 198 kb/sEncoded date : UTC 2019-06-29 02:52:30Writing application : mkvmerge v34.0.0 ('Sight and Seen') 64-bitWriting library : libebml v1.3.7 + libmatroska v1.5.0VideoID : 1Format : AVCFormat/Info : Advanced Video CodecFormat profile : High@L4Format settings, CABAC : YesFormat settings, ReFrames : 4 framesCodec ID : V_MPEG4/ISO/AVCDuration : 23 min 5 sBit rate : 7 942 kb/sWidth : 1 920 pixelsHeight : 1 080 pixelsDisplay aspect ratio : 16:9Frame rate mode : ConstantFrame rate : 23.976 FPSColor space : YUVChroma subsampling : 4:2:0Bit depth : 8 bitsScan type : ProgressiveBits/(Pixel*Frame) : 0.160Stream size : 1.28 GiB (97%)Language : EnglishDefault : YesForced : NoAudioID : 2Format : AACFormat/Info : Advanced Audio CodecFormat profile : LCCodec ID : A_AACDuration : 23 min 5 sBit rate : 253 kb/sChannel(s) : 2 channelsChannel positions : Front: L RSampling rate : 48.0 kHzFrame rate : 46.875 FPS (1024 spf)Compression mode : LossyDelay relative to video : -75 msStream size : 41.8 MiB (3%)Language : EnglishDefault : YesForced : No
Tracker(s)
udp://tracker.leechers-paradise.org:6969S: 0L: 0C: 0U: 3d, 10hr, 48min ago
udp://tracker.opentrackr.org:1337/announceS: 0L: 1C: 17U: 51d, 22hr, 48min ago
udp://tracker.coppersurfer.tk:6969/announceScrape failedU: 59d, 22hr, 56min ago
udp://exodus.desync.com:6969/announce-
udp://tracker.coppersurfer.tk:6969Scrape failedU: 17hr, 18min ago
http://nyaa.tracker.wf:7777/announceS: 0L: 0C: 25U: 55d, 9hr, 34min ago
udp://open.stealth.si:80/announceS: 0L: 2C: 6U: 52d, 4hr, 4min ago



0 comment(s):
Add new comment
Name:
Comment Type:
Message:Please be aware of the following before commenting:
  • Anime Tosho provides a mirror of torrents and is not the source. Please understand that uploaders/submitters may not read comments here, so you should check the Source Links section near the top of this page if you wish to contact them
  • Expired links do NOT get reuploaded as files are deleted after we process them
  • Uploads are NOT instant, so please wait for them to be processed
  • The entire uploading process is done by a bot which does NOT read any comments, so asking for links will have no effect on when they show up
  • Critical comments are welcome, however note that statements such as "X is crap" or "Y sucks" are NOT criticisms and aren't useful to anyone. Please back such statements up with reasoning to be both informative and demonstrate that you aren't just some whiney kid.
Image Verification:

Our squiggly text game where the aim is to copy the image into the textbox. All characters are upper case, and there are no zeros (0) and ones (1) in the above image. Apparently bots aren't as good as humans at this game.
beta
Anime DDL+NZB mirror
Current Time: 19/09/2019 02:59



About/FAQs