Dragon Ball Super Episodes 92-104 English Dubbed Uncut Funimation 1080P WEBRIP AAC2.0.H.264


This torrent has not been fetched due to skipping policy - please see source links for more information.
Source LinksNyaa | Torrent Download | Magnet Link (16.90 GB)
Date Submitted28/06/2019 03:22
Series (!)Dragon Ball Super
CommentFormat : MatroskaFormat version : Version 4 / Version 2File size : 1.30 GiBDuration : 23 min 5 sOverall bit rate : 8 052 kb/sEncoded date : UTC 2019-06-27 05:42:33Writing application : mkvmerge v34.0.0 ('Sight and Seen') 64-bitWriting library : libebml v1.3.7 + libmatroska v1.5.0VideoID : 1Format : AVCFormat/Info : Advanced Video CodecFormat profile : High@L4Format settings, CABAC : YesFormat settings, ReFrames : 4 framesCodec ID : V_MPEG4/ISO/AVCDuration : 23 min 5 sBit rate : 7 923 kb/sWidth : 1 920 pixelsHeight : 1 080 pixelsDisplay aspect ratio : 16:9Frame rate mode : ConstantFrame rate : 23.976 (24000/1001) FPSColor space : YUVChroma subsampling : 4:2:0Bit depth : 8 bitsScan type : ProgressiveBits/(Pixel*Frame) : 0.159Stream size : 1.28 GiB (98%)Language : EnglishDefault : YesForced : NoAudioID : 2Format : AACFormat/Info : Advanced Audio CodecFormat profile : LCCodec ID : A_AACDuration : 23 min 5 sBit rate : 128 kb/sChannel(s) : 2 channelsChannel positions : Front: L RSampling rate : 48.0 kHzFrame rate : 46.875 FPS (1024 spf)Compression mode : LossyDelay relative to video : -118 msStream size : 21.1 MiB (2%)Language : EnglishDefault : YesForced : No
Tracker(s)
udp://tracker.leechers-paradise.org:6969Scrape failedU: 4d, 4hr, 3min ago
udp://tracker.opentrackr.org:1337/announceS: 1L: 0C: 0U: 57d, 17hr, 42min ago
udp://tracker.coppersurfer.tk:6969/announceScrape failedU: 57d, 17hr, 41min ago
udp://exodus.desync.com:6969/announce-
udp://tracker.coppersurfer.tk:6969Scrape failedU: 1d, 11hr, 48min ago
udp://tracker.opentrackr.org:1337S: 1L: 0C: 0U: 10d, 19hr, 26min ago
http://nyaa.tracker.wf:7777/announceS: 0L: 0C: 6U: 60d, 9hr, 20min ago
udp://open.stealth.si:80/announceS: 0L: 0C: 0U: 57d, 17hr, 1min ago
udp://tracker.pirateparty.gr:6969Scrape failedU: 2hr, 50min ago
udp://eddie4.nl:696Scrape failedU: 15hr, 57min ago



2 comment(s):
17/09/2019 00:39 — utossa
how about some seeds please
17/09/2019 00:46 — Anonymous
click on Nyaa link
Add new comment
Name:
Comment Type:
Message:Please be aware of the following before commenting:
  • Anime Tosho provides a mirror of torrents and is not the source. Please understand that uploaders/submitters may not read comments here, so you should check the Source Links section near the top of this page if you wish to contact them
  • Expired links do NOT get reuploaded as files are deleted after we process them
  • Uploads are NOT instant, so please wait for them to be processed
  • The entire uploading process is done by a bot which does NOT read any comments, so asking for links will have no effect on when they show up
  • Critical comments are welcome, however note that statements such as "X is crap" or "Y sucks" are NOT criticisms and aren't useful to anyone. Please back such statements up with reasoning to be both informative and demonstrate that you aren't just some whiney kid.
Image Verification:

Our squiggly text game where the aim is to copy the image into the textbox. All characters are upper case, and there are no zeros (0) and ones (1) in the above image. Apparently bots aren't as good as humans at this game.
beta
Anime DDL+NZB mirror
Current Time: 23/09/2019 10:04



About/FAQs