Dragon Ball Super Episode 125 DUBBED 1080P WEBRIP AAC2.0.H.264


Source LinksNyaa | Torrent Download | Magnet Link (1.253 GB) | NZB
Date Submitted25/08/2019 08:00
Series (!)Dragon Ball Super - Episode 125 (of 131): With Imposing Presence! God of Destruction Toppo Descends!!
CommentFormat : MatroskaFormat version : Version 4 / Version 2File size : 1.25 GiBDuration : 22 min 10 sOverall bit rate : 8 093 kb/sEncoded date : UTC 2019-08-25 06:48:35Writing application : mkvmerge v36.0.0 ('Is That Jazz?') 64-bitWriting library : libebml v1.3.9 + libmatroska v1.5.2VideoID : 1Format : AVCFormat/Info : Advanced Video CodecFormat profile : High@L4Format settings, CABAC : YesFormat settings, ReFrames : 4 framesCodec ID : V_MPEG4/ISO/AVCDuration : 22 min 10 sBit rate : 7 967 kb/sWidth : 1 920 pixelsHeight : 1 080 pixelsDisplay aspect ratio : 16:9Frame rate mode : ConstantFrame rate : 23.976 (23976/1000) FPSColor space : YUVChroma subsampling : 4:2:0Bit depth : 8 bitsScan type : ProgressiveBits/(Pixel*Frame) : 0.160Stream size : 1.23 GiB (98%)Language : EnglishDefault : YesForced : NoAudioID : 2Format : AACFormat/Info : Advanced Audio CodecFormat profile : LCCodec ID : A_AACDuration : 21 min 48 sBit rate : 126 kb/sChannel(s) : 2 channelsChannel positions : Front: L RSampling rate : 44.1 kHzFrame rate : 43.066 FPS (1024 spf)Compression mode : LossyDelay relative to video : -86 msStream size : 19.6 MiB (2%)Language : EnglishDefault : YesForced : No
Tracker(s)
udp://tracker.leechers-paradise.org:6969S: 4L: 1C: 0U: 4min ago
udp://tracker.opentrackr.org:1337/announceS: 4L: 0C: 265U: 13hr, 15min ago
udp://tracker.coppersurfer.tk:6969/announceScrape failedU: 4d, 4hr, 34min ago
udp://exodus.desync.com:6969/announce-
udp://tracker.coppersurfer.tk:6969Scrape failedU: 7hr, 11min ago
udp://tracker.opentrackr.org:1337S: 4L: 0C: 265U: 18hr, 46min ago
http://nyaa.tracker.wf:7777/announceS: 2L: 0C: 94U: 5d, 20hr, 19min ago
udp://open.stealth.si:80/announceS: 2L: 0C: 165U: 18hr, 10min ago
udp://tracker.pirateparty.gr:6969Scrape failedU: 12hr, 7min ago
udp://eddie4.nl:696Scrape failedU: 12hr, 3min ago
File Name (Size)Dragon Ball Super S05E49 A Commandig Presence! The Advent of Top the Destroyer!.mkv (1.253 GB)
DownloadClickNUpload | Jheberg
MultiUp: Part1
  • BdUpload
  • DownAce
  • Fichier
  • FileCloud
  • Filerio
  • FilesCdn
  • IndiShare
  • Kbagi
  • Turbobit
  • UpToBox
  • Uppit
, Part2
  • BdUpload
  • DownAce
  • Fichier
  • FileCloud
  • Filerio
  • FilesCdn
  • IndiShare
  • Kbagi
  • Turbobit
  • UpToBox
  • Uppit
, Part3
  • BdUpload
  • DownAce
  • Fichier
  • FileCloud
  • Filerio
  • FilesCdn
  • IndiShare
  • Kbagi
  • Turbobit
  • UpToBox
  • Uppit

OpenLoad: Part1, Part2
Sendspace: Part1, Part2, Part3, Part4, Part5
SolidFiles: Part1, Part2, Part3
ZippyShare: Part1, Part2, Part3
Screenshots
screenshotscreenshotscreenshotscreenshotscreenshot



0 comment(s):
Add new comment
Name:
Comment Type:
Message:Please be aware of the following before commenting:
  • Anime Tosho provides a mirror of torrents and is not the source. Please understand that uploaders/submitters may not read comments here, so you should check the Source Links section near the top of this page if you wish to contact them
  • Expired links do NOT get reuploaded as files are deleted after we process them
  • Uploads are NOT instant, so please wait for them to be processed
  • The entire uploading process is done by a bot which does NOT read any comments, so asking for links will have no effect on when they show up
  • Critical comments are welcome, however note that statements such as "X is crap" or "Y sucks" are NOT criticisms and aren't useful to anyone. Please back such statements up with reasoning to be both informative and demonstrate that you aren't just some whiney kid.
Image Verification:

Our squiggly text game where the aim is to copy the image into the textbox. All characters are upper case, and there are no zeros (0) and ones (1) in the above image. Apparently bots aren't as good as humans at this game.
beta
Anime DDL+NZB mirror
Current Time: 20/09/2019 19:19



About/FAQs