Source LinksNyaa | Torrent Download | Magnet Link (1.252 GB) | NZB
Date Submitted28/07/2019 06:25
Series (!)Dragon Ball Super - Episode 121 (of 131): All-Out War! The Ultimate Quadruple Merge vs Universe 7's Full-Scale Attack!!
CommentFormat : MatroskaFormat version : Version 4 / Version 2File size : 1.25 GiBDuration : 22 min 10 sOverall bit rate : 8 087 kb/sEncoded date : UTC 2019-07-28 05:46:58Writing application : mkvmerge v34.0.0 ('Sight and Seen') 64-bitWriting library : libebml v1.3.7 + libmatroska v1.5.0VideoID : 1Format : AVCFormat/Info : Advanced Video CodecFormat profile : High@L4Format settings, CABAC : YesFormat settings, ReFrames : 4 framesCodec ID : V_MPEG4/ISO/AVCDuration : 22 min 10 sBit rate : 7 955 kb/sWidth : 1 920 pixelsHeight : 1 080 pixelsDisplay aspect ratio : 16:9Frame rate mode : ConstantFrame rate : 23.976 (23976/1000) FPSColor space : YUVChroma subsampling : 4:2:0Bit depth : 8 bitsScan type : ProgressiveBits/(Pixel*Frame) : 0.160Stream size : 1.23 GiB (98%)Language : EnglishDefault : YesForced : NoAudioID : 2Format : AACFormat/Info : Advanced Audio CodecFormat profile : LCCodec ID : A_AACDuration : 21 min 44 sBit rate : 132 kb/sChannel(s) : 2 channelsChannel positions : Front: L RSampling rate : 48.0 kHzFrame rate : 46.875 FPS (1024 spf)Compression mode : LossyDelay relative to video : -86 msStream size : 20.5 MiB (2%)Language : EnglishDefault : YesForced : No
Tracker(s)
udp://tracker.leechers-paradise.org:6969S: 2L: 0C: 2U: 1d, 10hr, 12min ago
udp://tracker.opentrackr.org:1337/announceS: 0L: 0C: 113U: 27d, 20hr, 58min ago
udp://tracker.coppersurfer.tk:6969/announceScrape failedU: 27d, 20hr, 57min ago
udp://exodus.desync.com:6969/announce-
udp://tracker.coppersurfer.tk:6969Scrape failedU: 2hr, 24min ago
udp://tracker.opentrackr.org:1337S: 1L: 0C: 116U: 6d, 2hr, 57min ago
http://nyaa.tracker.wf:7777/announceS: 0L: 0C: 34U: 28d, 6hr, 16min ago
udp://open.stealth.si:80/announceS: 1L: 0C: 52U: 27d, 11hr, 58min ago
udp://tracker.pirateparty.gr:6969Scrape failedU: 1hr, 7min ago
udp://eddie4.nl:696Scrape failedU: 21hr, 35min ago
File Name (Size)Dragon Ball Super S05E45 All Out War! The Ultimate Four-Fold Union vs. the 7th Universe's Total Offensive!.mkv (1.252 GB)
DownloadClickNUpload | Jheberg
MultiUp: Part1
  • BdUpload
  • DownAce
  • Fichier
  • FileCloud
  • Filerio
  • FilesCdn
  • IndiShare
  • Kbagi
  • Turbobit
  • UpToBox
  • Uppit
, Part2
  • BdUpload
  • DownAce
  • Fichier
  • FileCloud
  • Filerio
  • FilesCdn
  • IndiShare
  • Kbagi
  • Turbobit
  • UpToBox
  • Uppit
, Part3
  • BdUpload
  • DownAce
  • Fichier
  • FileCloud
  • Filerio
  • FilesCdn
  • IndiShare
  • Kbagi
  • Turbobit
  • UpToBox
  • Uppit

OpenLoad: Part1, Part2
Sendspace: Part1, Part2, Part3, Part4, Part5
SolidFiles: Part1, Part2, Part3
ZippyShare: Part1, Part2, Part3
Screenshots
screenshotscreenshotscreenshotscreenshotscreenshot



0 comment(s):
Add new comment
Name:
Comment Type:
Message:Please be aware of the following before commenting:
  • Anime Tosho provides a mirror of torrents and is not the source. Please understand that uploaders/submitters may not read comments here, so you should check the Source Links section near the top of this page if you wish to contact them
  • Expired links do NOT get reuploaded as files are deleted after we process them
  • Uploads are NOT instant, so please wait for them to be processed
  • The entire uploading process is done by a bot which does NOT read any comments, so asking for links will have no effect on when they show up
  • Critical comments are welcome, however note that statements such as "X is crap" or "Y sucks" are NOT criticisms and aren't useful to anyone. Please back such statements up with reasoning to be both informative and demonstrate that you aren't just some whiney kid.
Image Verification:

Our squiggly text game where the aim is to copy the image into the textbox. All characters are upper case, and there are no zeros (0) and ones (1) in the above image. Apparently bots aren't as good as humans at this game.
beta
Anime DDL+NZB mirror
Current Time: 23/09/2019 08:21



About/FAQs