Chaos;Head (2008) [ZECHS] [Dual-Audio] [HEVC] [BDRip] [HD 1080p]


Source LinksNyaa | Torrent Download | Magnet Link (5.883 GB) | NZB
Date Submitted02/04/2020 18:32
Series (!)Chaos;Head
Comment![alt text](https://media.senscritique.com/media/000006515457/325/Chaos_Head.jpg)**SOURCE:** BDRemux**MEDIAINFO**GeneralUnique ID : 169745810393161607765245528715635663833 (0x7FB3DA9A4EBD829A4ED7C1E1E1D323D9)Complete name : ChäoS;Head - S01E01 - Boot Up.mkvFormat : MatroskaFormat version : Version 4 / Version 2File size : 518 MiBDuration : 26 min 42 sOverall bit rate : 2 712 kb/sEncoded by : ZECHSEncoded date : UTC 2020-04-02 11:00:01Writing application : mkvmerge v44.0.0 ('Domino') 64-bitWriting library : libebml v1.3.10 + libmatroska v1.5.2 / Lavf58.29.100VideoID : 1Format : HEVCFormat/Info : High Efficiency Video CodingFormat profile : Main@L4@MainCodec ID : V_MPEGH/ISO/HEVCDuration : 26 min 42 sBit rate : 1 848 kb/sWidth : 1 920 pixelsHeight : 1 080 pixelsDisplay aspect ratio : 16:9Frame rate mode : VariableFrame rate : 23.976 FPSColor space : YUVChroma subsampling : 4:2:0Bit depth : 8 bitsBits/(Pixel*Frame) : 0.037Stream size : 353 MiB (68%)Writing library : x265 2.6:[Linux][GCC 7.2.0][64 bit] 8bit+10bit+12bitDefault : NoForced : NoColor range : LimitedAudio #1ID : 2Format : AACFormat/Info : Advanced Audio CodecFormat profile : LCCodec ID : A_AAC-2Duration : 26 min 42 sBit rate : 443 kb/sChannel(s) : 6 channelsChannel positions : Front: L C R, Side: C, Back: L RSampling rate : 48.0 kHzFrame rate : 46.875 FPS (1024 SPF)Compression mode : LossyStream size : 84.6 MiB (16%)Writing library : Lavc58.54.100 aacLanguage : EnglishDefault : YesForced : NoAudio #2ID : 3Format : AACFormat/Info : Advanced Audio CodecFormat profile : LCCodec ID : A_AAC-2Duration : 26 min 42 sBit rate : 384 kb/sChannel(s) : 2 channelsChannel positions : Front: L RSampling rate : 48.0 kHzFrame rate : 46.875 FPS (1024 SPF)Compression mode : LossyStream size : 74.6 MiB (14%)Writing library : Lavc58.54.100 aacLanguage : JapaneseDefault : NoForced : NoText #1ID : 4Format : PGSMuxing mode : zlibCodec ID : S_HDMV/PGSCodec ID/Info : Picture based subtitle format used on BDs/HD-DVDsDuration : 26 min 35 sBit rate : 47.7 kb/sCount of elements : 688Stream size : 9.08 MiB (2%)Title : Full SubtitlesDefault : NoForced : NoText #2ID : 5Format : PGSMuxing mode : zlibCodec ID : S_HDMV/PGSCodec ID/Info : Picture based subtitle format used on BDs/HD-DVDsDuration : 24 min 32 sBit rate : 20.2 kb/sCount of elements : 120Stream size : 3.54 MiB (1%)Title : Signs & SongsDefault : NoForced : NoMenu00:00:00.000 : :Chapter 0100:01:42.060 : :Chapter 0200:03:11.649 : :Chapter 0300:13:56.001 : :Chapter 0400:25:00.999 : :Chapter 0500:26:30.714 : :Chapter 06
Tracker(s)
udp://tracker.opentrackr.org:1337/announceS: 6L: 3C: 123U: 63d, 22hr, 47min ago
udp://tracker.coppersurfer.tk:6969/announceScrape failedU: 63d, 15hr, 33min ago
udp://exodus.desync.com:6969/announce-
http://nyaa.tracker.wf:7777/announceS: 3L: 2C: 173U: 75d, 11hr, 8min ago
udp://open.stealth.si:80/announceS: 5L: 5C: 125U: 63d, 21hr, 51min ago
Files
517.9 MB
547.6 MB
525.3 MB
486.9 MB
481.4 MB
479.2 MB
510.3 MB
509.3 MB
485.9 MB
466.6 MB
495.7 MB
518.0 MB
SubtitlesAll Attachments



0 comment(s):
Add new comment
Name:
Comment Type:
Message:Please be aware of the following before commenting:
  • Anime Tosho provides a mirror of torrents and is not the source. Please understand that uploaders/submitters may not read comments here, so you should check the Source Links section near the top of this page if you wish to contact them
  • Expired links do NOT get reuploaded as files are deleted after we process them
  • Uploads are NOT instant, so please wait for them to be processed
  • The entire uploading process is done by a bot which does NOT read any comments, so asking for links will have no effect on when they show up
  • Critical comments are welcome, however note that statements such as "X is crap" or "Y sucks" are NOT criticisms and aren't useful to anyone. Please back such statements up with reasoning to be both informative and demonstrate that you aren't just some whiney kid.
Image Verification:

Our squiggly text game where the aim is to copy the image into the textbox. All characters are upper case, and there are no zeros (0) and ones (1) in the above image. Apparently bots aren't as good as humans at this game.
beta
Anime DDL+NZB mirror
Current Time: 05/07/2020 10:03



About/FAQs